X   Site Message
(Message will auto close in 2 seconds)

Welcome Guest ( Log In | Register )

> Releases Upload / Добавление релизов

Добавить релиз тут / Click here to add release
Рекомендованные обменники / Recommended file shares

> Il Vuoto - Vastness (2019), Funeral Doom/Drone Metal
post Feb 11 2019, 14:31:58
Post #1

Serial Uploader
Group Icon
Group: V.I.P
Posts: 33,909
Releases: 32149
From: Lithuania
On Forums: 10 years 8 months
Thanks: 366739 time(s)
Lithuania




*Artist: Il Vuoto
*Album: Vastness
*Year: 2019
*Genre: Funeral Doom/Drone Metal
*Country: Italy
*Format: mp3@CBR320kbps
*Size: 135MB

Tracklist:
01. Vastness
02. Weakness
03. Her Fragile Limbs
04. V (The Fifth Nail)
05. As the Whole World Failed
******************************
Total playing time: 59:02





Technical info

Input File: 2 - Weakness.mp3
Channels : 2
Sample Rate : 44100
Precision : 16-bit
Duration : 00:13:45.88 = 36421308 samples = 61941 CDDA sectors
File Size : 33.2M
Bit Rate : 322k
Sample Encoding: MPEG audio (layer I, II or III)
Comments :
Title=Weakness
Artist=Il Vuoto
Album=Vastness
Tracknumber=2
Year=2019
Genre=Alternative/Indie Rock/Metal
Discnumber=1



Register


Go to the top of the page
  Insert nick Quick quote
+Quote Post
 
Start new topic
Replies (1 - 2)
post Feb 11 2019, 16:55:09
Post #2

Три Литра
***
Group: Завсегдатай
Posts: 233
Releases: 93
From: Helvetia
On Forums: 6 years 2 weeks
Thanks: 1545 time(s)
Switzerland


From Italy. Il vuoto means "the void" in Italian.


Thanks:
(1) ingram,
Go to the top of the page
  Insert nick Quick quote
+Quote Post
post Feb 11 2019, 16:57:48
Post #3

Аннигилятор пивА
Group Icon
Group: V.I.P
Posts: 52,277
Releases: 16523
From: Koenigsberg - TILZIT
On Forums: 12 years 8 months
Thanks: 357868 time(s)
Russian Federation


138mb/320
Register

Register


Go to the top of the page
  Insert nick Quick quote
+Quote Post

Reply to this topicStart new topic
1 User(s) are reading this topic (1 Guests and 0 Anonymous Users)
0 Members:

 



- Lo-Fi Version Support form
Copyrights and abuse reports form
Time is now: 19th February 2019 - 12:43:16