X   Site Message
(Message will auto close in 2 seconds)

Welcome Guest ( Log In | Register )

 
Reply to this topicStart new topic
> Chaos And Technocracy - Useless Suffering [single] (1995), Progressive Heavy/Thrash Metal
post Feb 11 2019, 12:26:35
Post #1

Подвал
**************
Group: Металариец
Posts: 13,059
Releases: 7325
From: Far East (Khabarovsk)
On Forums: 10 years 3 weeks
Thanks: 69335 time(s)
Russian Federation




*Artist: Chaos And Technocracy
*Album: Useless Suffering [single]
*Year: 1995
*Genre: Progressive Heavy/Thrash Metal
*Country: Italy
*Format: mp3@CBR192kbps
*Size: 12MB

Tracklist:
1. Useless Suffering 04:07
2. The Voice of Your Soul 04:40
******************************
Total playing time: 8:47

Extended info
Recorded and mixed at Acqualuce Studios in October 22nd-23rd 1994.


Technical info

Input File: 01-Useless Suffering.mp3
Channels : 2
Sample Rate : 44100
Precision : 16-bit
Duration : 00:04:08.35 = 10952279 samples = 18626.3 CDDA sectors
File Size : 5.96M
Bit Rate : 192k
Sample Encoding: MPEG audio (layer I, II or III)
Comments :
Title=Useless Suffering
Artist=Chaos And Technocracy (Ita)
Album=Useless Suffering (EP)
Tracknumber=01
Year=1995
Genre=Metal



Register


Go to the top of the page
  Insert nick Quick quote
+Quote Post

Reply to this topicStart new topic
1 User(s) are reading this topic (1 Guests and 0 Anonymous Users)
0 Members:

 



- Lo-Fi Version Support form
Copyrights and abuse reports form
Time is now: 19th February 2019 - 12:44:49