X   Site Message
(Message will auto close in 2 seconds)

Welcome Guest ( Log In | Register )

> Centurion - Chaotic Side (1996), Power/Thrash Metal (D4)
post Feb 11 2019, 09:35:45
Post #1

Join my religion, or die
**************
Group: Металариец
Posts: 9,889
Releases: 1222
From: Питера
On Forums: 9 years 4 months
Thanks: 16539 time(s)
Russian Federation




*Artist: Centurion
*Album: Chaotic Side
*Year: 1996
*Genre: Power/Thrash Metal
*Country: Venezuela
*Format: mp3@CBR320kbps
*Size: 55MB

Tracklist:
01. State of Disorder 02:50
02. Ninguna jodida confianza 02:30
03. Fuckers 03:28
04. Deadly World Trade 03:10
05. Chaotic Side 03:16
06. Cybical Blame 04:18
07. Fuck Your Reputation 01:48
08. Tales of Gossiper 04:21
******************************
Total playing time: 25:41

Extended info
Графики конечно жесть.
Альбом выходил только на кассете, записанной самопально.
Тем не менее вполне слушабельно.
Лучше всё равно нет и уже не будет...


Technical info

Input File: 02 Ninguna Jodida Confianza.mp3
Channels : 2
Sample Rate : 48000
Precision : 16-bit
Duration : 00:02:21.15 = 6775056 samples ~ 10586 CDDA sectors
File Size : 5.69M
Bit Rate : 323k
Sample Encoding: MPEG audio (layer I, II or III)
Comments :
Title=Ninguna Jodida Confianza
Artist=Centurion
Album=1996 Chaotic Side
Tracknumber=02/08
Year=1986
Genre=Thrash Metal



Register


Go to the top of the page
  Insert nick Quick quote
+Quote Post
 
Start new topic
Replies (1 - 4)
post Feb 11 2019, 21:03:32
Post #2

Join my religion, or die
**************
Group: Металариец
Posts: 9,889
Releases: 1222
From: Питера
On Forums: 9 years 4 months
Thanks: 16539 time(s)
Russian Federation


Yandex
Register


Thanks:
(2) boby9052, gwar,
Go to the top of the page
  Insert nick Quick quote
+Quote Post
post Feb 11 2019, 21:38:17
Post #3

Восемь Литров
********
Group: Металариец
Posts: 822
Releases: 1
On Forums: 4 years 3 months
Thanks: 300 time(s)
Tajikistan


Мадура если в ростов переедет, можно оригинал с неё стрясти))


Thanks:
(2) slack, Yarri,
Go to the top of the page
  Insert nick Quick quote
+Quote Post
post Feb 11 2019, 21:45:42
Post #4

Join my religion, or die
**************
Group: Металариец
Posts: 9,889
Releases: 1222
From: Питера
On Forums: 9 years 4 months
Thanks: 16539 time(s)
Russian Federation


Смешно конечно пошутил. Еле догнал... 15.gif
Go to the top of the page
  Insert nick Quick quote
+Quote Post
post Feb 11 2019, 22:05:57
Post #5

21st Century Schizoid Man
**************
Group: Металариец
Posts: 5,606
Releases: 67
From: Moscow
On Forums: 10 years 9 months
Thanks: 4319 time(s)
Russian Federation


Могёт. 1488.gif


Thanks:
(1) slack,
Go to the top of the page
  Insert nick Quick quote
+Quote Post

Reply to this topicStart new topic
1 User(s) are reading this topic (1 Guests and 0 Anonymous Users)
0 Members:

 



- Lo-Fi Version Support form
Copyrights and abuse reports form
Time is now: 19th February 2019 - 12:46:24