X   Site Message
(Message will auto close in 2 seconds)

Welcome Guest ( Log In | Register )

> Releases Upload / Добавление релизов

Добавить релиз тут / Click here to add release
Рекомендованные обменники / Recommended file shares

 
Reply to this topicStart new topic
> Mass Insanity - Antihuman (2015), Death Metal
post Feb 11 2019, 07:00:08
Post #1

Правь статус, ####!111
**************
Group: Металариец
Posts: 16,005
Releases: 10862
From: Г.Харьков
On Forums: 6 years 9 months
Thanks: 180727 time(s)
Unknown




*Artist: Mass Insanity
*Album: Antihuman
*Year: 2015
*Genre: Death Metal
*Country: Poland
*Format: mp3@CBR320kbps
*Size: 92MB

Tracklist:
1. Intro - A Slaughter to Come... 02:12 instrumental
2. Walking the Path of Violence 03:36
3. Decalogue 04:35
4. Dark Passenger 03:35
5. We Still Destroy 07:05
6. Collapsed and Decayed 04:20
7. Crimelords 04:20
8. Home Is Where the Hatred Is 04:48
9. Antihuman Campaign 05:04
******************************
Total playing time: 39:35




Extended info
Hektor Drums
Rafał Guitars
Viehu Guitars
Mały Vocals
Tolas Bass


Technical info

Input File: 03 - Decalogue.mp3
Channels : 2
Sample Rate : 44100
Precision : 16-bit
Duration : 00:04:35.61 = 12154269 samples = 20670.5 CDDA sectors
File Size : 11.2M
Bit Rate : 324k
Sample Encoding: MPEG audio (layer I, II or III)
Comments :
Title=Decalogue
Artist=Mass Insanity
Album=Antihuman
Tracknumber=3
Year=2015
Genre=Metal
Discnumber=1



Register


Go to the top of the page
  Insert nick Quick quote
+Quote Post

Reply to this topicStart new topic
1 User(s) are reading this topic (1 Guests and 0 Anonymous Users)
0 Members:

 



- Lo-Fi Version Support form
Copyrights and abuse reports form
Time is now: 19th February 2019 - 12:42:33