X   Site Message
(Message will auto close in 2 seconds)

Welcome Guest ( Log In | Register )

> Releases Upload / Добавление релизов

Добавить релиз тут / Click here to add release
Рекомендованные обменники / Recommended file shares

> Malignant - Purity Through Putrefaction [ep] (2018), Old School Death Metal (D5)
post Feb 10 2019, 20:12:47
Post #1

Правь статус, ####!111
**************
Group: Металариец
Posts: 15,971
Releases: 10840
From: Г.Харьков
On Forums: 6 years 9 months
Thanks: 180360 time(s)
Unknown




*Artist: Malignant
*Album: Purity Through Putrefaction [ep]
*Year: 2018
*Genre: Old School Death Metal
*Country: United States
*Format: mp3@CBR320kbps
*Size: 51MB

Tracklist:
1. Purity 03:00
2. Set in Flesh 04:16
3. Depolarization of the Spine 04:31
4. Forced Asphyxiation 04:55
5. With Odious Disgust... 05:26
******************************
Total playing time: 22:08




Extended info
Antonio Arias Bass (2016-present)
Fernando Psijas Guitars (2016-present)
Kevin Castro Guitars, Vocals (2016-present)
Miguel Hernandez Drums (2017-present)
See also: ex-Morfin


Technical info

Input File: 03 - Depolarization of the Spine.mp3
Channels : 2
Sample Rate : 44100
Precision : 16-bit
Duration : 00:04:31.35 = 11966447 samples = 20351.1 CDDA sectors
File Size : 10.9M
Bit Rate : 321k
Sample Encoding: MPEG audio (layer I, II or III)
Comments :
Title=Depolarization of the Spine
Artist=Malignant
Album=Purity Through Putrefaction
Tracknumber=3
Year=2018
Genre=Metal
Discnumber=1



Register


Go to the top of the page
  Insert nick Quick quote
+Quote Post
 
Start new topic
Replies (1 - 1)
post Feb 11 2019, 15:57:49
Post #2

тебе 28, а ты все реверсами балуешься
***********
Group: Металариец
Posts: 1,556
Releases: 4
On Forums: 10 years 6 months
Thanks: 404 time(s)
Russian Federation


Музло б зашло, если б вокалист перестал нашёптывать и начал бы реветь нормально.
А так реально обидно - жирный олдскульчик.
Go to the top of the page
  Insert nick Quick quote
+Quote Post

Reply to this topicStart new topic
1 User(s) are reading this topic (1 Guests and 0 Anonymous Users)
0 Members:

 



- Lo-Fi Version Support form
Copyrights and abuse reports form
Time is now: 16th February 2019 - 01:12:32