X   Site Message
(Message will auto close in 2 seconds)

Welcome Guest ( Log In | Register )

> Releases Upload / Добавление релизов

Добавить релиз тут / Click here to add release
Рекомендованные обменники / Recommended file shares

> Insurrection - Trinity [demo] (1994), Death Metal (D)
post Feb 10 2019, 11:40:12
Post #1

Подвал
**************
Group: Металариец
Posts: 13,036
Releases: 7306
From: Far East (Khabarovsk)
On Forums: 10 years 2 weeks
Thanks: 69143 time(s)
Russian Federation




*Artist: Insurrection
*Album: Trinity [demo]
*Year: 1994
*Genre: Death Metal
*Country: South Africa
*Format: mp3@CBR320kbps
*Size: 13MB

Tracklist:
1. Trinity 05:43
2. Freedom Fighters 03:54
******************************
Total playing time: 9:37



Technical info

Input File: 01-Trinity.mp3
Channels : 2
Sample Rate : 44100
Precision : 16-bit
Duration : 00:05:43.29 = 15139265 samples = 25747 CDDA sectors
File Size : 8.24M
Bit Rate : 192k
Sample Encoding: MPEG audio (layer I, II or III)
Comments :
Title=Trinity
Artist=Insurrection
Album=Trinity (Demo)
Tracknumber=01
Year=1994
Genre=22



Register


Go to the top of the page
  Insert nick Quick quote
+Quote Post
 
Start new topic
Replies (1 - 1)
post Feb 11 2019, 14:30:10
Post #2

Три Литра
***
Group: Завсегдатай
Posts: 294
Releases: 54
From: Rostov-on-Don, Russia
On Forums: 12 years 3 months
Thanks: 558 time(s)
Russian Federation


Go to the top of the page
  Insert nick Quick quote
+Quote Post

Reply to this topicStart new topic
1 User(s) are reading this topic (1 Guests and 0 Anonymous Users)
0 Members:

 



- Lo-Fi Version Support form
Copyrights and abuse reports form
Time is now: 16th February 2019 - 01:01:23