X   Site Message
(Message will auto close in 2 seconds)

Welcome Guest ( Log In | Register )

> Releases Upload / Добавление релизов

Добавить релиз тут / Click here to add release
Рекомендованные обменники / Recommended file shares

 
Reply to this topicStart new topic
> Bomb Disneyland - Nail Mary [single] (1989), Thrash Metal/Crossover
post Feb 10 2019, 09:28:19
Post #1

Подвал
**************
Group: Металариец
Posts: 13,036
Releases: 7306
From: Far East (Khabarovsk)
On Forums: 10 years 2 weeks
Thanks: 69143 time(s)
Russian Federation




*Artist: Bomb Disneyland
*Album: Nail Mary [single]
*Year: 1989
*Genre: Thrash Metal/Crossover
*Country: United Kingdom
*Format: mp3@CBR320kbps
*Size: 9MB

Tracklist:
1. Nail Mary 02:12
2. Evangelist 01:52
******************************
Total playing time: 4:04



Extended info
Recorded at Frontier Studios, Nottingham.


Technical info

Input File: 01-Nail Mary.mp3
Channels : 2
Sample Rate : 44100
Precision : 16-bit
Duration : 00:02:10.33 = 5747465 samples = 9774.6 CDDA sectors
File Size : 5.40M
Bit Rate : 332k
Sample Encoding: MPEG audio (layer I, II or III)
Comments :
Title=Nail Mary
Artist=Bomb Disneyland
Album=Nail Mary
Tracknumber=01
Year=1989
Genre=Hardcore



Register


Go to the top of the page
  Insert nick Quick quote
+Quote Post

Reply to this topicStart new topic
1 User(s) are reading this topic (1 Guests and 0 Anonymous Users)
0 Members:

 



- Lo-Fi Version Support form
Copyrights and abuse reports form
Time is now: 16th February 2019 - 01:06:37