X   Site Message
(Message will auto close in 2 seconds)

Welcome Guest ( Log In | Register )

> Releases Upload / Добавление релизов

Добавить релиз тут / Click here to add release
Рекомендованные обменники / Recommended file shares

 
Reply to this topicStart new topic
> Arjen & Eeuwig - Gateway To The Monolith Of Dreams [split] (2017), Black Metal | Black Metal
post Jan 11 2019, 19:13:58
Post #1

the faceless one
Group Icon
Group: S-moderation team
Posts: 8,831
Releases: 1712
On Forums: 10 years 5 months
Thanks: 101765 time(s)
Unknown




*Artist: Arjen & Eeuwig
*Album: Gateway To The Monolith Of Dreams [split]
*Year: 2017
*Genre: Black Metal | Black Metal
*Country: Bosnia and Herzegovina | Netherlands
*Format: mp3@CBR192kbps
*Size: 27MB

Tracklist:
Arjen:
1. I Opet Blatnim Putem Koračam 04:11
2. Negdje Tu, Gdje Sunca Nema 05:06
Eeuwig:
3. Mijn Eindigheid, Mijn Lijdensweg 09:52
******************************
Total playing time: 19:09



Extended info
Tape limited to 100 copies.


Technical info

Input File: 01 I Opet Blatnin Putem Koracam.mp3
Channels : 2
Sample Rate : 44100
Precision : 16-bit
Duration : 00:04:10.92 = 11065704 samples = 18819.2 CDDA sectors
File Size : 6.02M
Bit Rate : 192k
Sample Encoding: MPEG audio (layer I, II or III)
Comments :
Title=I Opet Blatnin Putem Koracam
Artist=Arjen
Album=Gateway To The Monolith Of Dreams
Tracknumber=1/3
Year=2017
Genre=Black Metal
Discnumber=1/1



Register


Go to the top of the page
  Insert nick Quick quote
+Quote Post

Reply to this topicStart new topic
1 User(s) are reading this topic (1 Guests and 0 Anonymous Users)
0 Members:

 



- Lo-Fi Version Support form
Copyrights and abuse reports form
Time is now: 23rd January 2019 - 03:06:42