X   Site Message
(Message will auto close in 2 seconds)

Welcome Guest ( Log In | Register )

> Releases Upload / Добавление релизов

Добавить релиз тут / Click here to add release
Рекомендованные обменники / Recommended file shares

 
Reply to this topicStart new topic
> Weird Tales - Hell Services Cost A Lot (2019), Doom/Sludge/Stoner Metal
post Jan 11 2019, 18:52:09
Post #1

Мегаманьяк
***********
Group: Металариец
Posts: 1,530
Releases: 1312
From: Одесса
On Forums: 10 years 7 months
Thanks: 10418 time(s)
Ukraine




*Artist: Weird Tales
*Album: Hell Services Cost A Lot
*Year: 2019
*Genre: Doom/Sludge/Stoner Metal
*Country: Poland
*Format: mp3@CBR320kbps
*Size: 132MB

Tracklist:
1. Madness 10:43
2. Crawling Pain 07:08
3. LIE 08:30
4. Nightmare 06:17
5. Bitchcrusher 06:14
6. Warnings 05:37
7. Dead Man 11:06
******************************
Total playing time: 55:35



Extended info


Technical info

Input File: 04. Nightmare.mp3
Channels : 2
Sample Rate : 48000
Precision : 16-bit
Duration : 00:06:17.40 = 18115344 samples ~ 28305.2 CDDA sectors
File Size : 15.2M
Bit Rate : 322k
Sample Encoding: MPEG audio (layer I, II or III)
Comments :
Title=Nightmare
Artist=Weird Tales
Album=Hell Services Cost a Lot
Tracknumber=4
Year=2019
Genre=Doom / Sludge / Stoner Metal



Register


Go to the top of the page
  Insert nick Quick quote
+Quote Post

Reply to this topicStart new topic
1 User(s) are reading this topic (1 Guests and 0 Anonymous Users)
0 Members:

 



- Lo-Fi Version Support form
Copyrights and abuse reports form
Time is now: 23rd January 2019 - 02:43:13