X   Site Message
(Message will auto close in 2 seconds)

Welcome Guest ( Log In | Register )

> Правила / Rules

Тут только для чтения лежат низкобитрейтные (<192kbps) релизы, для которых есть аналоги в высокобитрейтных форумах.

Here goes (and stand in read only mode) low bitrate releases (<192kbps) which were already replaced by high bitrate releases in corresponding forums.

Причина закрытия (DarkHorde 15-01-2019): Volucrine - Skywards (2019)
 
Closed TopicStart new topic
> Volucrine - Skywards (2019), Melodic Death/Progressive Metal
post Jan 11 2019, 16:02:58
Post #1

Мегаманьяк
***********
Group: Металариец
Posts: 1,530
Releases: 1312
From: Одесса
On Forums: 10 years 7 months
Thanks: 10418 time(s)
Ukraine




*Artist: Volucrine
*Album: Skywards
*Year: 2019
*Genre: Melodic Death/Progressive Metal
*Country: Finland
*Format: mp3@CBR128kbps
*Size: 44MB

Tracklist:
1. Utopia 01:50
2. Done Dealing 04:03
3. Matterless Measures 03:54
4. Guardians 04:45
5. Terra Frigidum 03:38
6. The Picture 04:14
7. EgoClash 03:05
8. The Glacier Plains 06:09
9. Uplifted 02:44
10. Skywards 03:29
11. Petrified Angels 03:30
12. SunLight 04:12
******************************
Total playing time: 45:33



Extended info
Line - up:
Joni Kyynäräinen - Bass (ex-Rage My Bitch, ex-Ruin, ex-V)
Atte Marttinen - Drums (ex-Kivimetsän Druidi, ex-V)
Jarmo Hienonen - Guitars (lead) (ex-V)
Antti Heikkilä - Guitars (rhythm) (ex-Verenperintö, ex-V)
Jupe Velin - Vocals (ex-V)

Guest/Session:
Joni Koskinen - Vocals (choirs) (Kivimetsän Druidi)
Toni Kukkola - Vocals (choirs) (Phantom Pain, ex-Rage My Bitch, ex-Ruin)
Samuel Lindroos - Vocals (choirs) (Sarvas, Fawr, Vacancy)



Technical info

Input File: 11 Volucrine - Petrified Angels.mp3
Channels : 2
Sample Rate : 44100
Precision : 16-bit
Duration : 00:03:30.78 = 9295530 samples = 15808.7 CDDA sectors
File Size : 3.38M
Bit Rate : 128k
Sample Encoding: MPEG audio (layer I, II or III)
Comments :
Title=Petrified Angels
Artist=Volucrine
Album=Skywards
Tracknumber=11
Year=2019
Genre=Melodic Death / Progressive Metal



Register


Thanks:
(1) Diflock,
Go to the top of the page
  Insert nick Quick quote
+Quote Post

Причина закрытия (DarkHorde 15-01-2019): Volucrine - Skywards (2019)
Closed TopicStart new topic
1 User(s) are reading this topic (1 Guests and 0 Anonymous Users)
0 Members:

 



- Lo-Fi Version Support form
Copyrights and abuse reports form
Time is now: 23rd January 2019 - 02:44:57