X   Site Message
(Message will auto close in 2 seconds)

Welcome Guest ( Log In | Register )

> Releases Upload / Добавление релизов

Добавить релиз тут / Click here to add release
Рекомендованные обменники / Recommended file shares

> Ravenscar - Red Moon [ep] (2018), Folk Metal
post Jan 11 2019, 15:12:55
Post #1

Serial Uploader
Group Icon
Group: V.I.P
Posts: 33,602
Releases: 31862
From: Lithuania
On Forums: 10 years 7 months
Thanks: 363642 time(s)
Lithuania




*Artist: Ravenscar
*Album: Red Moon [ep]
*Year: 2018
*Genre: Folk Metal
*Country: Belgium
*Format: mp3@CBR320kbps
*Size: 39MB

Tracklist:
01. Red Moon 04:39
02. Drink 03:35
03. The Fallen Ones 08:40
******************************
Total playing time: 16:54





Extended info
Exclusive for Metalarea.org


Technical info

Input File: 02. Drink.mp3
Channels : 2
Sample Rate : 44100
Precision : 16-bit
Duration : 00:03:36.00 = 9525380 samples = 16199.6 CDDA sectors
File Size : 8.68M
Bit Rate : 321k
Sample Encoding: MPEG audio (layer I, II or III)
Comments :
Title=Drink
Artist=RavenscaR
Album=Red Moon
Tracknumber=2/3
Year=2018



Register


Go to the top of the page
  Insert nick Quick quote
+Quote Post
 
Start new topic
Replies (1 - 1)
post Jan 11 2019, 17:50:46
Post #2

Шесть Литров
******
Group: Металариец
Posts: 639
Releases: 0
From: Черкассы
On Forums: 7 years 1 month
Thanks: 87 time(s)
Ukraine


*Стиль:Pagan Viking Metal
Go to the top of the page
  Insert nick Quick quote
+Quote Post

Reply to this topicStart new topic
1 User(s) are reading this topic (1 Guests and 0 Anonymous Users)
0 Members:

 



- Lo-Fi Version Support form
Copyrights and abuse reports form
Time is now: 23rd January 2019 - 02:42:38