X   Site Message
(Message will auto close in 2 seconds)

Welcome Guest ( Log In | Register )

> Releases Upload / Добавление релизов

Добавить релиз тут / Click here to add release
Рекомендованные обменники / Recommended file shares

 
Reply to this topicStart new topic
> Catatonic Profanation - Euphoric Dismemberment [ep] (2018), Brutal Death Metal
post Jan 11 2019, 14:33:11
Post #1

Serial Uploader
Group Icon
Group: V.I.P
Posts: 33,602
Releases: 31862
From: Lithuania
On Forums: 10 years 7 months
Thanks: 363642 time(s)
Lithuania




*Artist: Catatonic Profanation
*Album: Euphoric Dismemberment [ep]
*Year: 2018
*Genre: Brutal Death Metal
*Country: United States
*Format: mp3@CBR320kbps
*Size: 21MB

Tracklist:
01. Stench of Rotting Flesh 03:19
02. Drowned in Vermin Seepage 02:35
03. Manipulated Offerings 03:13
******************************
Total playing time: 9:07





Technical info

Input File: 02. Drowned in Vermin Seepage (ft. Niko Apostolakis of Left to Drown).mp3
Channels : 2
Sample Rate : 44100
Precision : 16-bit
Duration : 00:02:35.15 = 6842071 samples = 11636.2 CDDA sectors
File Size : 6.41M
Bit Rate : 330k
Sample Encoding: MPEG audio (layer I, II or III)
Comments :
Title=Drowned in Vermin Seepage (ft. Niko Apostolakis of Left to Drown)
Artist=Catatonic Profanation
Album=Euphoric Dismemberment
Tracknumber=2
Year=2018



Register


Go to the top of the page
  Insert nick Quick quote
+Quote Post

Reply to this topicStart new topic
1 User(s) are reading this topic (1 Guests and 0 Anonymous Users)
0 Members:

 



- Lo-Fi Version Support form
Copyrights and abuse reports form
Time is now: 23rd January 2019 - 02:39:09