X   Site Message
(Message will auto close in 2 seconds)

Welcome Guest ( Log In | Register )

> Releases Upload / Добавление релизов

Добавить релиз тут / Click here to add release
Рекомендованные обменники / Recommended file shares

 
Reply to this topicStart new topic
> Gorse Cairn - Isara [ep] (2018), Black/Doom Metal
post Jan 11 2019, 11:12:07
Post #1

Аннигилятор пивА
Group Icon
Group: V.I.P
Posts: 51,572
Releases: 16203
From: Koenigsberg - TILZIT
On Forums: 12 years 7 months
Thanks: 352465 time(s)
Russian Federation




*Artist: Gorse Cairn
*Album: Isara [ep]
*Year: 2018
*Genre: Black/Doom Metal
*Country: United Kingdom
*Format: mp3@CBR320kbps
*Size: 41MB

Tracklist:
01. As the Wind Carves the Mountain
02. Hail the Old North
03. All That Has Come to Pass
******************************
Total playing time: 17:22




Technical info

Input File: GORSE CAIRN - ISARA - 02 Hail the old north.mp3
Channels : 2
Sample Rate : 44100
Precision : 16-bit
Duration : 00:04:44.91 = 12564399 samples = 21368 CDDA sectors
File Size : 11.5M
Bit Rate : 323k
Sample Encoding: MPEG audio (layer I, II or III)
Comments :
Title=Hail the old north
Artist=GORSE CAIRN
Album=ISARA
Tracknumber=2
Year=2018



Register


Go to the top of the page
  Insert nick Quick quote
+Quote Post

Reply to this topicStart new topic
1 User(s) are reading this topic (1 Guests and 0 Anonymous Users)
0 Members:

 



- Lo-Fi Version Support form
Copyrights and abuse reports form
Time is now: 23rd January 2019 - 02:45:35