X   Site Message
(Message will auto close in 2 seconds)

Welcome Guest ( Log In | Register )

> Releases Upload / Добавление релизов

Добавить релиз тут / Click here to add release
Рекомендованные обменники / Recommended file shares

 
Reply to this topicStart new topic
> Winter Owl - Cursed Sanctuary [ep] (2018), Progressive/Power Metal
post Jan 11 2019, 10:44:58
Post #1

Аннигилятор пивА
Group Icon
Group: V.I.P
Posts: 51,474
Releases: 16166
From: Koenigsberg - TILZIT
On Forums: 12 years 7 months
Thanks: 351585 time(s)
Russian Federation




*Artist: Winter Owl
*Album: Cursed Sanctuary [ep]
*Year: 2018
*Genre: Progressive/Power Metal
*Country: Italy
*Format: mp3@CBR320kbps
*Size: 52MB

Tracklist:
01. Jolly Roger
02. Cursed Sanctuary
03. Bad Dream
04. Time's Up
05. Ghost
******************************
Total playing time: 21:28



Extended info



Technical info

Input File: 02. Cursed Sanctuary.mp3
Channels : 2
Sample Rate : 44100
Precision : 16-bit
Duration : 00:04:04.55 = 10784567 samples = 18341.1 CDDA sectors
File Size : 10.3M
Bit Rate : 336k
Sample Encoding: MPEG audio (layer I, II or III)
Comments :
Title=Cursed Sanctuary
Artist=Winter Owl
Album=Cursed Sanctuary
Tracknumber=2/5
Year=2018
Genre=Power Prog Metal
Discnumber=1/1



Register


Go to the top of the page
  Insert nick Quick quote
+Quote Post

Reply to this topicStart new topic
1 User(s) are reading this topic (1 Guests and 0 Anonymous Users)
0 Members:

 



- Lo-Fi Version Support form
Copyrights and abuse reports form
Time is now: 19th January 2019 - 10:03:23