X   Site Message
(Message will auto close in 2 seconds)

Welcome Guest ( Log In | Register )

> Releases Upload / Добавление релизов

Добавить релиз тут / Click here to add release
Рекомендованные обменники / Recommended file shares

> Lazy Bonez - Kiss Of The Night (2019), Melodic Heavy Metal
post Jan 11 2019, 05:20:19
Post #1

Serial Uploader
Group Icon
Group: V.I.P
Posts: 33,571
Releases: 31834
From: Lithuania
On Forums: 10 years 7 months
Thanks: 363423 time(s)
Lithuania




*Artist: Lazy Bonez
*Album: Kiss Of The Night
*Year: 2019
*Genre: Melodic Heavy Metal
*Country: Finland
*Format: mp3@CBR320kbps
*Size: 123MB

Tracklist:
01. Everlasting
02. Run
03. Kiss of the Night (ft. Antti Railio)
04. Calling the Wild
05. Slaves of the Dark
06. Tears of Gold
07. War of the Roses
08. Fire
09. Smile
10. Psych Ward (Under the New Management)
11. Forever Young
12. Poseidon
13. Follow Me
******************************
Total playing time: 52:51

Preview 1

Technical info

Input File: 02. Run.mp3
Channels : 2
Sample Rate : 44100
Precision : 16-bit
Duration : 00:00:00.24 = 10760 samples = 18.2993 CDDA sectors
File Size : 9.92M
Bit Rate : 325M
Sample Encoding: MPEG audio (layer I, II or III)
Comments :
Title=Run
Artist=Lazy Bonez
Album=Kiss of the Night
Tracknumber=2
Year=2019-19-20
Discnumber=1/1



Register


Go to the top of the page
  Insert nick Quick quote
+Quote Post
 
Start new topic
Replies (1 - 1)
post Jan 11 2019, 07:02:13
Post #2

MDM-Thrash Metal
**************
Group: Металариец
Posts: 7,412
Releases: 425
From: Одесса
On Forums: 11 years 5 months
Thanks: 14037 time(s)
Ukraine


Register

http://www.youtube.com/watch?v=6sb6afb2FLk


Go to the top of the page
  Insert nick Quick quote
+Quote Post

Reply to this topicStart new topic
1 User(s) are reading this topic (1 Guests and 0 Anonymous Users)
0 Members:

 



- Lo-Fi Version Support form
Copyrights and abuse reports form
Time is now: 19th January 2019 - 09:57:56