X   Site Message
(Message will auto close in 2 seconds)

Welcome Guest ( Log In | Register )

> Releases Upload / Добавление релизов

Добавить релиз тут / Click here to add release
Рекомендованные обменники / Recommended file shares

> Vile Retribution - Obedience (2019), Blackened Death Metal
post Jan 11 2019, 02:00:44
Post #1

Правь статус, ####!111
**************
Group: Металариец
Posts: 15,694
Releases: 10659
From: Г.Харьков
On Forums: 6 years 8 months
Thanks: 177299 time(s)
Unknown




*Artist: Vile Retribution
*Album: Obedience
*Year: 2019
*Genre: Blackened Death Metal
*Country: Denmark
*Format: mp3@CBR320kbps
*Size: 110MB

Tracklist:
01. Paranoid Reality
02. Self-Destructive Humanity
03. A Web of Corruption
04. Blinded Eyes
05. Inner Demons
06. The Fundamental Flaw
07. Break the Barrier
08. A Great Hunger
09. Burdened by Faith
10. Elude the Fall
11. False Memories
******************************
Total playing time: 44:53



Extended info
Jonas Dehn Drums (2013-present)
Rasmus L. Hansen Guitars (2013-present)
Johnny D. Nilsson Vocals (2013-present)
Michael Østergaard Bass (2015-present)


Technical info

Input File: 04 Blinded Eyes.mp3
Channels : 2
Sample Rate : 44100
Precision : 16-bit
Duration : 00:03:47.77 = 10044833 samples = 17083 CDDA sectors
File Size : 9.72M
Bit Rate : 341k
Sample Encoding: MPEG audio (layer I, II or III)
Comments :
Title=Blinded Eyes
Artist=Vile Retribution
Album=Obedience
Tracknumber=4/11
Year=2019
Genre=Metal
Discnumber=1/1



Register


Go to the top of the page
  Insert nick Quick quote
+Quote Post
 
Start new topic
Replies (1 - 2)
post Jan 11 2019, 06:06:04
Post #2

Правь статус, ####!111
**************
Group: Металариец
Posts: 15,694
Releases: 10659
From: Г.Харьков
On Forums: 6 years 8 months
Thanks: 177299 time(s)
Unknown


Cloud Mail 320
Register


Thanks:
Go to the top of the page
  Insert nick Quick quote
+Quote Post
post Jan 11 2019, 07:24:34
Post #3

MDM-Thrash Metal
**************
Group: Металариец
Posts: 7,412
Releases: 425
From: Одесса
On Forums: 11 years 5 months
Thanks: 14037 time(s)
Ukraine


- Правда нового альбома нет, предыдущий и Миник.


Thanks:
(1) artscald,
Go to the top of the page
  Insert nick Quick quote
+Quote Post

Reply to this topicStart new topic
1 User(s) are reading this topic (1 Guests and 0 Anonymous Users)
0 Members:

 



- Lo-Fi Version Support form
Copyrights and abuse reports form
Time is now: 19th January 2019 - 10:00:22