X   Site Message
(Message will auto close in 2 seconds)

Welcome Guest ( Log In | Register )

> Releases Upload / Добавление релизов

Добавить релиз тут / Click here to add release
Рекомендованные обменники / Recommended file shares

> Karanlık & Ohol Yeg - We Despise The Crescent [split] (2018), Black Metal | Black Metal
post Jan 11 2019, 01:58:29
Post #1

Правь статус, ####!616
**************
Group: Металариец
Posts: 4,461
Releases: 3053
From: 55°35’N 38°08’E
On Forums: 10 years 6 months
Thanks: 57668 time(s)
Unknown




*Artist: Karanlık & Ohol Yeg
*Album: We Despise The Crescent [split]
*Year: 2018
*Genre: Black Metal | Black Metal
*Country: Turkey | Turkey
*Format: mp3@CBR320kbps
*Size: 48MB

Tracklist:
Karanlık:
1.Widowmaker 03:11
2.In League with Lucifer 03:20
3.Defile the Holy Lands 03:05
Ohol Yeg:
4.Burning Crescents 02:51
5.Orbiting the Infinite Void 04:57
6.Primal Demise 03:17
******************************
Total playing time: 20:41





Technical info

Input File: 01 Karanlık - Widowmaker.mp3
Channels : 2
Sample Rate : 44100
Precision : 16-bit
Duration : 00:03:11.26 = 8434390 samples = 14344.2 CDDA sectors
File Size : 7.74M
Bit Rate : 324k
Sample Encoding: MPEG audio (layer I, II or III)
Comments :
Title=Widowmaker
Artist=KARANLIK
Album=We Despise the Crescent (Split)
Tracknumber=1
Year=2018
Genre=Black Metal



Register


Go to the top of the page
  Insert nick Quick quote
+Quote Post
 
Start new topic
Replies (1 - 1)
post Jan 12 2019, 17:45:13
Post #2

Русь Понад Усе!
**************
Group: Металариец
Posts: 4,124
Releases: 15
From: Украина
On Forums: 11 years 4 months
Thanks: 1592 time(s)
Ukraine


А мне понравилось, такой честный блечара bye.gif
Go to the top of the page
  Insert nick Quick quote
+Quote Post

Reply to this topicStart new topic
1 User(s) are reading this topic (1 Guests and 0 Anonymous Users)
0 Members:

 



- Lo-Fi Version Support form
Copyrights and abuse reports form
Time is now: 19th January 2019 - 10:06:03