X   Site Message
(Message will auto close in 2 seconds)

Welcome Guest ( Log In | Register )

> Releases Upload / Добавление релизов

Добавить релиз тут / Click here to add release
Рекомендованные обменники / Recommended file shares

 
Reply to this topicStart new topic
> Cruel Master - Demo VI [demo] (2018), Black Metal/Punk (D6)
post Jan 10 2019, 19:44:46
Post #1

Правь статус, ####!616
**************
Group: Металариец
Posts: 4,461
Releases: 3053
From: 55°35’N 38°08’E
On Forums: 10 years 6 months
Thanks: 57668 time(s)
Unknown




*Artist: Cruel Master
*Album: Demo VI [demo]
*Year: 2018
*Genre: Black Metal/Punk
*Country: United States
*Format: mp3@CBR320kbps
*Size: 51MB

Tracklist:
1.Rohypnol Romance 05:26
2.Exposer 04:26
3.The Beast 04:29
4.Midnight Voyeur 03:44
5.Smashed 04:04
******************************
Total playing time: 22:09



Technical info

Input File: 01 Rohypnol Romance.mp3
Channels : 2
Sample Rate : 44100
Precision : 16-bit
Duration : 00:05:26.71 = 14407823 samples = 24503.1 CDDA sectors
File Size : 13.1M
Bit Rate : 322k
Sample Encoding: MPEG audio (layer I, II or III)
Comments :
Title=Rohypnol Romance
Artist=Cruel Master
Album=Demo VI
Tracknumber=1
Year=2018
Genre=Black Metal



Register


Go to the top of the page
  Insert nick Quick quote
+Quote Post

Reply to this topicStart new topic
1 User(s) are reading this topic (1 Guests and 0 Anonymous Users)
0 Members:

 



- Lo-Fi Version Support form
Copyrights and abuse reports form
Time is now: 19th January 2019 - 09:59:43