X   Site Message
(Message will auto close in 2 seconds)

Welcome Guest ( Log In | Register )

> Releases Upload / Добавление релизов

Добавить релиз тут / Click here to add release
Рекомендованные обменники / Recommended file shares

> Corrections House - Writing History In Advance [live] (2014), Avant-Garde/Industrial/Post-Metal/Sludge (D4)
post Jan 10 2019, 17:53:04
Post #1

Девять Литров
*********
Group: Металариец
Posts: 928
Releases: 52
On Forums: 5 years 3 months
Thanks: 1570 time(s)
Unknown




*Artist: Corrections House
*Album: Writing History In Advance [live]
*Year: 2014
*Genre: Avant-Garde/Industrial/Post-Metal/Sludge
*Country: United States
*Format: mp3@CBR320kbps
*Size: 169MB

Tracklist:
01. Side A (Drapes Hung By Jesus) 16:30
02. Side B (Party Leg And Three Fingers / Bullets And Graves / Dirt Poor And Mentally Ill) 21:08
03. Side C (Hallows Of The Stream / Last City Zero / Serve Or Survive) 20:29
04. Side D (Hoax The System) 15:51
******************************
Total playing time: 1:13:58



Technical info

Input File: 04. Side D.mp3
Channels : 2
Sample Rate : 44100
Precision : 16-bit
Duration : 00:15:50.60 = 41921416 samples = 71294.9 CDDA sectors
File Size : 38.1M
Bit Rate : 321k
Sample Encoding: MPEG audio (layer I, II or III)
Comments :
Title=Side D (Hoax The System)
Artist=Corrections House
Album=Writing History In Advance
Tracknumber=04
Year=2014
Genre=Industrial



Register


Go to the top of the page
  Insert nick Quick quote
+Quote Post
 
Start new topic
Replies (1 - 1)
post Jan 10 2019, 21:21:52
Post #2

Маньяк
**********
Group: Металариец
Posts: 1,037
Releases: 0
On Forums: 7 years 8 months
Thanks: 446 time(s)
Unknown


Go to the top of the page
  Insert nick Quick quote
+Quote Post

Reply to this topicStart new topic
1 User(s) are reading this topic (1 Guests and 0 Anonymous Users)
0 Members:

 



- Lo-Fi Version Support form
Copyrights and abuse reports form
Time is now: 19th January 2019 - 09:53:13