X   Site Message
(Message will auto close in 2 seconds)

Welcome Guest ( Log In | Register )

> Releases Upload / Добавление релизов

Добавить релиз тут / Click here to add release
Рекомендованные обменники / Recommended file shares

> Eternal Fortress - Enchanted Woods Of Sorrow [ep] (2018), Atmospheric Black Metal
post Jan 10 2019, 16:54:08
Post #1

Serial Uploader
Group Icon
Group: V.I.P
Posts: 33,571
Releases: 31834
From: Lithuania
On Forums: 10 years 7 months
Thanks: 363423 time(s)
Lithuania




*Artist: Eternal Fortress
*Album: Enchanted Woods Of Sorrow [ep]
*Year: 2018
*Genre: Atmospheric Black Metal
*Country: United States
*Format: mp3@CBR320kbps
*Size: 28MB

Tracklist:
01. Sorrowful Journey 03:02
02. Realm Of Rain 07:27
03. Tol Galen 01:36
******************************
Total playing time: 12:05



Technical info

Input File: 02. Realm Of Rain.mp3
Channels : 2
Sample Rate : 44100
Precision : 16-bit
Duration : 00:07:27.32 = 19726768 samples = 33548.9 CDDA sectors
File Size : 18.0M
Bit Rate : 322k
Sample Encoding: MPEG audio (layer I, II or III)
Comments :
Title=Realm Of Rain
Artist=Eternal Fortress
Album=Enchanted Woods Of Sorrow
Tracknumber=2
Year=2018



Register


Go to the top of the page
  Insert nick Quick quote
+Quote Post
 
Start new topic
Replies (1 - 1)
post Jan 10 2019, 17:53:52
Post #2

Шесть Литров
******
Group: Металариец
Posts: 637
Releases: 0
From: Черкассы
On Forums: 7 years 1 month
Thanks: 87 time(s)
Ukraine


02. Realm Of Rain очень даже. Надеюсь услышать хороший полноформат от этих ребят.
Go to the top of the page
  Insert nick Quick quote
+Quote Post

Reply to this topicStart new topic
1 User(s) are reading this topic (1 Guests and 0 Anonymous Users)
0 Members:

 



- Lo-Fi Version Support form
Copyrights and abuse reports form
Time is now: 19th January 2019 - 09:59:04