X   Site Message
(Message will auto close in 2 seconds)

Welcome Guest ( Log In | Register )

> Releases Upload / Добавление релизов

Добавить релиз тут / Click here to add release
Рекомендованные обменники / Recommended file shares

 
Reply to this topicStart new topic
> Feasting - Bring Dishonor [demo] (2018), Black Metal
post Jan 10 2019, 16:41:17
Post #1

Serial Uploader
Group Icon
Group: V.I.P
Posts: 33,571
Releases: 31834
From: Lithuania
On Forums: 10 years 7 months
Thanks: 363423 time(s)
Lithuania




*Artist: Feasting
*Album: Bring Dishonor [demo]
*Year: 2018
*Genre: Black Metal
*Country: United States
*Format: mp3@CBR320kbps
*Size: 124MB

Tracklist:
01. Permafrost 02:28
02. Put on the Boots of an Elf 11:00
03. Bring Dishonor 06:22
04. So the Moon Crossed Over 09:00
05. Abyss upon the Sea of White 05:52
06. All Through Your Wonderful Night 08:14
07. Feast Again 10:40
******************************
Total playing time: 53:36




Technical info

Input File: 02. Put on the Boots of an Elf.mp3
Channels : 2
Sample Rate : 44100
Precision : 16-bit
Duration : 00:11:00.10 = 29110322 samples = 49507.4 CDDA sectors
File Size : 26.6M
Bit Rate : 322k
Sample Encoding: MPEG audio (layer I, II or III)
Comments :
Title=Put on the Boots of an Elf
Artist=Feasting
Album=Bring Dishonor (Demo)
Tracknumber=2
Year=2018



Register


Go to the top of the page
  Insert nick Quick quote
+Quote Post

Reply to this topicStart new topic
1 User(s) are reading this topic (1 Guests and 0 Anonymous Users)
0 Members:

 



- Lo-Fi Version Support form
Copyrights and abuse reports form
Time is now: 19th January 2019 - 10:03:29