X   Site Message
(Message will auto close in 2 seconds)

Welcome Guest ( Log In | Register )

> Tantrum - Melt It Down (2018), Heavy Metal (D4)
post Dec 6 2018, 16:03:24
Post #1

Правь статус, ####!111
**************
Group: Металариец
Posts: 16,005
Releases: 10861
From: Г.Харьков
On Forums: 6 years 9 months
Thanks: 180723 time(s)
Unknown




*Artist: Tantrum
*Album: Melt It Down
*Year: 2018
*Genre: Heavy Metal
*Country: United Kingdom
*Format: mp3@CBR320kbps
*Size: 100MB

Tracklist:
01. Underdogs
02. New World Order
03. Hammer into Anvil
04. Hero
05. Melt It Down
06. Nwobhm
07. March of the Damned
08. Last Man Standing
09. The Tyrant
10. Wizards Warning
******************************
Total playing time: 42:35



Extended info
Billy Angus Drums (2015-present)
Steven Waddell Guitars (2015-present)
See also: Oath
Stoo Condie Guitars (2016-present)
Ritchie Davison Bass (2017-present)
See also: ex-Fallen Skies
Steven Paul Swanson Vocals (2017-present)


Technical info

Input File: 03 Hammer into Anvil.mp3
Channels : 2
Sample Rate : 44100
Precision : 16-bit
Duration : 00:04:07.68 = 10922688 samples = 18576 CDDA sectors
File Size : 10.2M
Bit Rate : 330k
Sample Encoding: MPEG audio (layer I, II or III)
Comments :
Title=Hammer Into Anvil
Artist=Tantrum
Album=Melt It Down
Tracknumber=3/10
Year=2018
Discnumber=1/1



Register


Go to the top of the page
  Insert nick Quick quote
+Quote Post
 
Start new topic
Replies (1 - 2)
post Dec 6 2018, 16:40:46
Post #2

Правь статус, ####!111
**************
Group: Металариец
Posts: 16,005
Releases: 10861
From: Г.Харьков
On Forums: 6 years 9 months
Thanks: 180723 time(s)
Unknown


Cloud Mail 320
Register


Thanks:
(1) postal67,
Go to the top of the page
  Insert nick Quick quote
+Quote Post
post Dec 7 2018, 12:14:46
Post #3

hearer & reader
**************
Group: Металариец
Posts: 7,418
Releases: 95
From: Moscow
On Forums: 11 years 5 months
Thanks: 7033 time(s)
Russian Federation



Неплохо. Только подпевки всем кагалом мне не нравятся.
Go to the top of the page
  Insert nick Quick quote
+Quote Post

Reply to this topicStart new topic
1 User(s) are reading this topic (1 Guests and 0 Anonymous Users)
0 Members:

 



- Lo-Fi Version Support form
Copyrights and abuse reports form
Time is now: 19th February 2019 - 06:33:13