X   Site Message
(Message will auto close in 2 seconds)

Welcome Guest ( Log In | Register )

> Releases Upload / Добавление релизов

Добавить релиз тут / Click here to add release
Рекомендованные обменники / Recommended file shares

> Myrholt - Nordland (2018), Black Metal (D7)
post Dec 6 2018, 15:51:19
Post #1

Аннигилятор пивА
Group Icon
Group: V.I.P
Posts: 51,476
Releases: 16166
From: Koenigsberg - TILZIT
On Forums: 12 years 7 months
Thanks: 351596 time(s)
Russian Federation




*Artist: Myrholt
*Album: Nordland
*Year: 2018
*Genre: Black Metal
*Country: Norway
*Format: mp3@CBR320kbps
*Size: 84MB

Tracklist:
1. Fra moerketid mot solgangsbris 05:33
2. Min dolk, ditt beger 08:22
3. Helgelandskysten 03:41
4. Svoept i kulde 05:38
5. Nordlys 05:34
6. Du, begjaerets skjaer 05:40
7. Fra Ragnarok til indre stillhet 05:37
******************************
Total playing time: 40:05



Extended info


Technical info

Input File: 03. Helgelandskysten.mp3
Channels : 2
Sample Rate : 44100
Precision : 16-bit
Duration : 00:03:41.59 = 9771943 samples = 16619 CDDA sectors
File Size : 8.91M
Bit Rate : 322k
Sample Encoding: MPEG audio (layer I, II or III)
Comments :
Title=Helgelandskysten
Artist=Myrholt
Album=Nordland
Tracknumber=3
Year=2018
Discnumber=1



Register


Go to the top of the page
  Insert nick Quick quote
+Quote Post
 
Start new topic
Replies (1 - 2)
post Dec 6 2018, 16:38:28
Post #2

Аннигилятор пивА
Group Icon
Group: V.I.P
Posts: 51,476
Releases: 16166
From: Koenigsberg - TILZIT
On Forums: 12 years 7 months
Thanks: 351596 time(s)
Russian Federation


mirror
Register



Go to the top of the page
  Insert nick Quick quote
+Quote Post
post Dec 6 2018, 19:02:07
Post #3

Два Литра
**
Group: Завсегдатай
Posts: 119
Releases: 0
On Forums: 10 years 10 months
Thanks: 39 time(s)
Russian Federation


Как всегда - отличный БМ от одного из участников культового Enslavement Of Beauty.
Go to the top of the page
  Insert nick Quick quote
+Quote Post

Reply to this topicStart new topic
1 User(s) are reading this topic (1 Guests and 0 Anonymous Users)
0 Members:

 



- Lo-Fi Version Support form
Copyrights and abuse reports form
Time is now: 19th January 2019 - 11:56:05