X   Site Message
(Message will auto close in 2 seconds)

Welcome Guest ( Log In | Register )

> Releases Upload / Добавление релизов

Добавить релиз тут / Click here to add release
Рекомендованные обменники / Recommended file shares

> Scarangella - Archetype (2018), Melodic Death/Thrash/Groove Metal
post Dec 6 2018, 15:40:33
Post #1

Правь статус, ####!111
**************
Group: Металариец
Posts: 15,694
Releases: 10659
From: Г.Харьков
On Forums: 6 years 8 months
Thanks: 177315 time(s)
Unknown




*Artist: Scarangella
*Album: Archetype
*Year: 2018
*Genre: Melodic Death/Thrash/Groove Metal
*Country: United States
*Format: mp3@CBR320kbps
*Size: 168MB

Tracklist:
01. Through the Dreamgate
02. Dragons, Thunder, Wizards, and Shit
03. 99 Days
04. Nihil
05. Machine Engineered Bio-Growth Mutagen
06. Serpentine
07. For Your Eyes Only
08. Nemesis
09. First Haunt
10. Abaddon's Leap
11. Pretty Faces Make Shallow Graves
12. Biotronic Abyssia
13. Xenophile
******************************
Total playing time: 1:11:16



Technical info

Input File: 04 Nihil.mp3
Channels : 2
Sample Rate : 44100
Precision : 16-bit
Duration : 00:04:48.51 = 12723379 samples = 21638.4 CDDA sectors
File Size : 11.9M
Bit Rate : 330k
Sample Encoding: MPEG audio (layer I, II or III)
Comments :
Title=Nihil
Artist=Scarangella
Album=Archetype
Tracknumber=4/13
Year=2018
Genre=Metal
Discnumber=1/1



Register


Go to the top of the page
  Insert nick Quick quote
+Quote Post
 
Start new topic
Replies (1 - 3)
post Dec 9 2018, 23:12:47
Post #2

MDM-Thrash Metal
**************
Group: Металариец
Posts: 7,412
Releases: 425
From: Одесса
On Forums: 11 years 5 months
Thanks: 14037 time(s)
Ukraine




ЦИТАТА(Samaritianin @ Dec 6 2018, 18:40:33) *
*Genre: Melodic Death

nyyy.gif
Go to the top of the page
  Insert nick Quick quote
+Quote Post
post Dec 10 2018, 08:07:45
Post #3

Маньяк
**********
Group: Металариец
Posts: 1,200
Releases: 116
On Forums: 9 years 5 months
Thanks: 923 time(s)
Kazakhstan


лучше б это был инструментал normal_Homerdisgust3s.png
а то такой неплохой жир - и с т 22.gif ким вокалом


Thanks:
(1) DenisKov,
Go to the top of the page
  Insert nick Quick quote
+Quote Post
post Dec 23 2018, 12:50:49
Post #4

Ъ
**************
Group: Металариец
Posts: 9,337
Releases: 9
On Forums: 10 years 1 week
Thanks: 1794 time(s)
Sweden


Тут все не огонь, но вокал реально вперде всех crazy.gif
Go to the top of the page
  Insert nick Quick quote
+Quote Post

Reply to this topicStart new topic
1 User(s) are reading this topic (1 Guests and 0 Anonymous Users)
0 Members:

 



- Lo-Fi Version Support form
Copyrights and abuse reports form
Time is now: 19th January 2019 - 11:57:45