X   Site Message
(Message will auto close in 2 seconds)

Welcome Guest ( Log In | Register )

> Releases Upload / Добавление релизов

Добавить релиз тут / Click here to add release
Рекомендованные обменники / Recommended file shares

> Dusk And Darkness - In·sane (2018), Progressive Dark Metal
post Dec 6 2018, 15:33:10
Post #1

Аннигилятор пивА
Group Icon
Group: V.I.P
Posts: 51,476
Releases: 16166
From: Koenigsberg - TILZIT
On Forums: 12 years 7 months
Thanks: 351596 time(s)
Russian Federation




*Artist: Dusk And Darkness
*Album: In·sane
*Year: 2018
*Genre: Progressive Dark Metal
*Country: France
*Format: mp3@CBR320kbps
*Size: 126MB

Tracklist:
01. Across the Frontier
02. Of Reality
03. Heavy Eyes
04. Table for Three
05. Welter
06. N.D.E.
07. 22q11.2
08. Hunters
09. Realm of Shattered Dreams
10. Behind the Glass
11. Neuroleptics
12. Polarity
******************************
Total playing time: 51:40




Extended info
Julien Taront - Guitars (2008-present)
Trique - Vocals (2008-present)
See also: Kod-31, ex-Slaughtered
Johanne Gea - Flute (2012-present)
Aurélien - Guitars (2013-2018), Bass (2018-present)
See also: Unstable
Lucas Linussio - Guitars (lead) (2016-present)
Ségolène - Vocals (female) (2016-present)
Pierre Croce - Drums (2018-present)


Technical info

Input File: 03 Heavy Eyes.mp3
Channels : 2
Sample Rate : 44100
Precision : 16-bit
Duration : 00:04:33.52 = 12062232 samples = 20514 CDDA sectors
File Size : 11.5M
Bit Rate : 337k
Sample Encoding: MPEG audio (layer I, II or III)
Comments :
Title=Heavy Eyes
Artist=Dusk, Darkness
Album=In·sane
Tracknumber=3/12
Year=2018
Genre=Rock
Discnumber=1/1



Register

Register


Go to the top of the page
  Insert nick Quick quote
+Quote Post
 
Start new topic
Replies (1 - 1)
post Dec 6 2018, 16:38:59
Post #2

Аннигилятор пивА
Group Icon
Group: V.I.P
Posts: 51,476
Releases: 16166
From: Koenigsberg - TILZIT
On Forums: 12 years 7 months
Thanks: 351596 time(s)
Russian Federation


MIRROR
Register




Thanks:
Go to the top of the page
  Insert nick Quick quote
+Quote Post

Reply to this topicStart new topic
1 User(s) are reading this topic (1 Guests and 0 Anonymous Users)
0 Members:

 



- Lo-Fi Version Support form
Copyrights and abuse reports form
Time is now: 19th January 2019 - 11:58:43