X   Site Message
(Message will auto close in 2 seconds)

Welcome Guest ( Log In | Register )

> Releases Upload / Добавление релизов

Добавить релиз тут / Click here to add release
Рекомендованные обменники / Recommended file shares

> Oakhaart - Parallel To An Endless Dream (2018), Technical/Progressive Death/Thrash Metal
post Dec 6 2018, 15:03:19
Post #1

Аннигилятор пивА
Group Icon
Group: V.I.P
Posts: 51,476
Releases: 16166
From: Koenigsberg - TILZIT
On Forums: 12 years 7 months
Thanks: 351596 time(s)
Russian Federation




*Artist: Oakhaart
*Album: Parallel To An Endless Dream
*Year: 2018
*Genre: Technical/Progressive Death/Thrash Metal
*Country: United Kingdom
*Format: mp3@CBR320kbps
*Size: 121MB

Tracklist:
1. A Godless Vessel 06:17
2. Celestial Pathway 06:41
3. Morals End 08:00
4. Trip 01:26
5. Degradation of Purpose 06:31
6. Falling 00:53
7. Neurogenesis 09:15
8. Wisdom and Freedom 04:44
9. Parallel to an Endless Dream 09:12
******************************
Total playing time: 52:59




Extended info
Ollie Medlow - Drums (2012-present) See also: ex-Body Harvest, ex-Codex Alimentarius, ex-Godeater, ex-Mortishead, ex-Lice
Max Medlow - Vocals, Guitars (lead), Bass (2012-present)
Second solo on 'Degradation of Purpose' by Conor McGouran (Xerath)
Second solo on 'A Godless Vessel' by Jason Deakins


Technical info

Input File: 01 A Godless Vessel.mp3
Channels : 2
Sample Rate : 44100
Precision : 16-bit
Duration : 00:06:17.44 = 16645148 samples = 28308.1 CDDA sectors
File Size : 15.1M
Bit Rate : 320k
Sample Encoding: MPEG audio (layer I, II or III)
Comments :
Title=A Godless Vessel
Artist=Oakhaart
Album=Parallel To An Endless Dream
Tracknumber=1
Year=2018



Register


Go to the top of the page
  Insert nick Quick quote
+Quote Post
 
Start new topic
Replies (1 - 4)
post Dec 6 2018, 16:40:38
Post #2

Аннигилятор пивА
Group Icon
Group: V.I.P
Posts: 51,476
Releases: 16166
From: Koenigsberg - TILZIT
On Forums: 12 years 7 months
Thanks: 351596 time(s)
Russian Federation


MIRROR
Register



Go to the top of the page
  Insert nick Quick quote
+Quote Post
post Dec 7 2018, 12:29:53
Post #3

hearer & reader
**************
Group: Металариец
Posts: 7,311
Releases: 93
From: Moscow
On Forums: 11 years 4 months
Thanks: 6940 time(s)
Russian Federation



Авангард какой-то утомительный. Ох, не осилю...
Go to the top of the page
  Insert nick Quick quote
+Quote Post
post Dec 10 2018, 09:34:05
Post #4

Group: Подсевший
Posts: 45
Releases: 0
On Forums: 1 year 9 months
Thanks: 10 time(s)
Russian Federation


Пошел третий трек - по-моему, отлично!
Авангарда я тут не вижу, это скорее прог, как и заявлено автором. Впрочем, дэта пока тоже нет, но это никак не портит впечатления m1234.gif
Go to the top of the page
  Insert nick Quick quote
+Quote Post
post Dec 10 2018, 10:03:47
Post #5

Аннигилятор пивА
Group Icon
Group: V.I.P
Posts: 51,476
Releases: 16166
From: Koenigsberg - TILZIT
On Forums: 12 years 7 months
Thanks: 351596 time(s)
Russian Federation


ЦИТАТА(Progressist @ Dec 10 2018, 08:34:05) *
Пошел третий трек - по-моему, отлично!
Авангарда я тут не вижу, это скорее прог, как и заявлено автором. Впрочем, дэта пока тоже нет, но это никак не портит впечатления m1234.gif

альбом конечно не авангард, но очень разнообразный и интересный, помимо прог тех дэта на нем присутстсвуют например и повер/техникал трэш флюиды, а местами вообще трудно определить, что они играют устраивая фьюжн... в немалой степени легкости альбому придает именно трэшевый настрой ритм гитары
Go to the top of the page
  Insert nick Quick quote
+Quote Post

Reply to this topicStart new topic
1 User(s) are reading this topic (1 Guests and 0 Anonymous Users)
0 Members:

 



- Lo-Fi Version Support form
Copyrights and abuse reports form
Time is now: 19th January 2019 - 12:00:39