X   Site Message
(Message will auto close in 2 seconds)

Welcome Guest ( Log In | Register )

> Eternal Dream - Daementia (2018), Symphonic Power Metal
post Dec 6 2018, 14:12:12
Post #1

Правь статус, ####!111
**************
Group: Металариец
Posts: 16,005
Releases: 10861
From: Г.Харьков
On Forums: 6 years 9 months
Thanks: 180723 time(s)
Unknown




*Artist: Eternal Dream
*Album: Daementia
*Year: 2018
*Genre: Symphonic Power Metal
*Country: Spain
*Format: mp3@CBR320kbps
*Size: 129MB

Tracklist:
01. Daementia
02. Anxiety
03. Euphoria
04. Delusion
05. Denial
06. Wrath
07. Obsession
08. Amnesia
09. Insanity
10. Numbness
11. Reverie
12. Awakening
******************************
Total playing time: 54:52



Extended info
Antonio Motta Bass
Niko Hartmann Guitars (lead)
César Rodríguez Keyboards
Ana Moronta Vocals
Álvaro Sabín Guitars (2010-present)
See also: ex-Scythesys
Miguel Angel Rey Drums (2012-present)
See also: ex-Anámnesis



Technical info

Input File: 03 Euphoria.mp3
Channels : 2
Sample Rate : 44100
Precision : 16-bit
Duration : 00:05:07.30 = 13551710 samples = 23047.1 CDDA sectors
File Size : 12.6M
Bit Rate : 327k
Sample Encoding: MPEG audio (layer I, II or III)
Comments :
Title=Euphoria
Artist=Eternal Dream
Album=Daementia
Tracknumber=3/12
Year=2018
Genre=Metal
Discnumber=1/1



Register


Go to the top of the page
  Insert nick Quick quote
+Quote Post
 
Start new topic
Replies (1 - 4)
post Dec 6 2018, 14:52:11
Post #2

Правь статус, ####!111
**************
Group: Металариец
Posts: 16,005
Releases: 10861
From: Г.Харьков
On Forums: 6 years 9 months
Thanks: 180723 time(s)
Unknown


Cloud Mail 320
Register


Thanks:
Go to the top of the page
  Insert nick Quick quote
+Quote Post
post Dec 7 2018, 12:06:29
Post #3

тебе 28, а ты все реверсами балуешься
***********
Group: Металариец
Posts: 1,556
Releases: 4
On Forums: 10 years 6 months
Thanks: 404 time(s)
Russian Federation


Ещё один образец псевдооперного вокала в копилку 1488.gif почему, если жанр симфоник, то поют всегда тётки и поют в среднем не очень? smile2.gif
Музло невнятное по мне.
Go to the top of the page
  Insert nick Quick quote
+Quote Post
post Dec 9 2018, 17:18:24
Post #4

Перевозчик
**************
Group: Металариец
Posts: 2,861
Releases: 0
On Forums: 10 years 7 months
Thanks: 597 time(s)
Russian Federation


Зато названия треков как автоматная очередь.


Thanks:
(1) Foneg,
Go to the top of the page
  Insert nick Quick quote
+Quote Post
post Dec 10 2018, 20:42:44
Post #5

Три Литра
***
Group: Завсегдатай
Posts: 203
Releases: 0
From: La Calera
On Forums: 6 years 3 weeks
Thanks: 195 time(s)
Chile


320 Kbps Mega

Register


Alex23...Foro Las Tropas del Metal


Thanks:
(1) csgmnk,
Go to the top of the page
  Insert nick Quick quote
+Quote Post

Reply to this topicStart new topic
1 User(s) are reading this topic (1 Guests and 0 Anonymous Users)
0 Members:

 



- Lo-Fi Version Support form
Copyrights and abuse reports form
Time is now: 19th February 2019 - 06:34:24