X   Site Message
(Message will auto close in 2 seconds)

Welcome Guest ( Log In | Register )

> Releases Upload / Добавление релизов

Добавить релиз тут / Click here to add release
Рекомендованные обменники / Recommended file shares

> Rauhnåcht - Unterm Gipfelthron (2018), Pagan Black Metal
post Dec 6 2018, 13:49:38
Post #1

Правь статус, ####!111
**************
Group: Металариец
Posts: 15,694
Releases: 10659
From: Г.Харьков
On Forums: 6 years 8 months
Thanks: 177315 time(s)
Unknown




*Artist: Rauhnåcht
*Album: Unterm Gipfelthron
*Year: 2018
*Genre: Pagan Black Metal
*Country: Austria
*Format: mp3@CBR320kbps
*Size: 93MB

Tracklist:
1. Zwischen den Jahren 04:27
2. Unterm Gipfelthron 09:16
3. Gebirgsbachreise 05:06
4. Ein Raunen aus vergess'ner Zeit 10:31
5. Winter zieht übers Land 11:17
******************************
Total playing time: 40:37




Extended info
Stefan Traunmüller All instruments, Vocals
See also: A Portrait of Flesh and Blood, Golden Dawn, The Negative Bias, Wallachia, ex-Auryn, ex-Bluteszorn, ex-Daimon, ex-Sternenstaub, Sturmpercht, ex-As Vampiric Shades and Belial Winds, ex-Iseghaal (live), ex-Apeiron (Aut), ex-Vanitas


Technical info

Input File: 02 Unterm Gipfelthron.mp3
Channels : 2
Sample Rate : 44100
Precision : 16-bit
Duration : 00:09:16.07 = 24522819 samples = 41705.5 CDDA sectors
File Size : 22.2M
Bit Rate : 320k
Sample Encoding: MPEG audio (layer I, II or III)
Comments :
Title=Unterm Gipfelthron
Artist=Rauhnacht
Album=​Unterm Gipfelthron
Tracknumber=02/05
Year=2018
Discnumber=1/1



Register


Go to the top of the page
  Insert nick Quick quote
+Quote Post
 
Start new topic
Replies (1 - 6)
post Dec 6 2018, 14:49:49
Post #2

Правь статус, ####!111
**************
Group: Металариец
Posts: 15,694
Releases: 10659
From: Г.Харьков
On Forums: 6 years 8 months
Thanks: 177315 time(s)
Unknown


Zippy 320
Register


Go to the top of the page
  Insert nick Quick quote
+Quote Post
post Dec 6 2018, 15:13:11
Post #3

Правь статус, ####!111
**************
Group: Металариец
Posts: 36,460
Releases: 537
On Forums: 9 years 7 months
Thanks: 28201 time(s)
Russian Federation


@320

Register



Go to the top of the page
  Insert nick Quick quote
+Quote Post
post Dec 6 2018, 18:03:59
Post #4

Время Мары
**************
Group: Металариец
Posts: 2,998
Releases: 390
From: Харьков
On Forums: 9 years 7 months
Thanks: 7498 time(s)
Ukraine


Классно 20.gif
Go to the top of the page
  Insert nick Quick quote
+Quote Post
post Dec 11 2018, 15:32:25
Post #5

While Waiting the Worms
*******
Group: Металариец
Posts: 708
Releases: 0
On Forums: 5 years 3 weeks
Thanks: 944 time(s)
Unknown


Ну не катят мне полноформаты Штефана, кроме дебютного "Vorweltschweigen".
Трэки на миниках и сплитах - прекрасны.
А вот на альбомах, к сожалению, что-то очень глубокое и существенное куда-то теряется, хотя составляющие компоненты все те же.
Не могу объяснить, вопрос восприятия, видимо.

- полный стрим, кому влом качать.
Go to the top of the page
  Insert nick Quick quote
+Quote Post
post Dec 11 2018, 17:29:28
Post #6

да.нет.выпью.
**************
Group: Металариец
Posts: 2,398
Releases: 0
On Forums: 2 years 11 months
Thanks: 1416 time(s)
Unknown


ЦИТАТА(Sangreal @ 11th December 2018 - 19:32:25) *
А вот на альбомах, к сожалению, что-то очень глубокое и существенное куда-то теряется, хотя составляющие компоненты все те же.

воды много.
Go to the top of the page
  Insert nick Quick quote
+Quote Post
post Dec 13 2018, 16:22:49
Post #7
BAN
Banned till
Jan 31 2019, 03:03:26



Первая вещь выпадает из концепции, а в остальном всё нормально. Красиво, душевно и меланхолично.
Ein Raunen aus vergess'ner Zeit 20.gif
Go to the top of the page
  Insert nick Quick quote
+Quote Post

Reply to this topicStart new topic
1 User(s) are reading this topic (1 Guests and 0 Anonymous Users)
0 Members:

 



- Lo-Fi Version Support form
Copyrights and abuse reports form
Time is now: 19th January 2019 - 12:05:38