X   Site Message
(Message will auto close in 2 seconds)

Welcome Guest ( Log In | Register )

> Releases Upload / Добавление релизов

Добавить релиз тут / Click here to add release
Рекомендованные обменники / Recommended file shares

> Infinita Symphonia - Liberation (2018), Progressive Power Metal
post Dec 6 2018, 13:39:58
Post #1

Аннигилятор пивА
Group Icon
Group: V.I.P
Posts: 50,768
Releases: 15822
From: Koenigsberg - TILZIT
On Forums: 12 years 6 months
Thanks: 345114 time(s)
Russian Federation




*Artist: Infinita Symphonia
*Album: Liberation
*Year: 2018
*Genre: Progressive Power Metal
*Country: Italy
*Format: mp3@CBR320kbps
*Size: 143MB

Tracklist:
01. Hope 02:13
02. The Time Has Come 04:57
03. Never Forget 05:04
04. How Do You Feel? 04:51
05. Coma 04:45
06. A Silent Hero 04:16
07. Be Wise or Be Fool 05:09
08. A New One 05:30
09. Don't Fall Asleep Again 04:21
10. Liberation 07:12
11. Q & A 11:11
******************************
Total playing time: 59:29



Extended info
Luca Micioni - Vocals
Gianmarco Ricasoli - Lead Guitar & Backing Vocals
Alberto De Felice - Bass & Backing Vocals
Ivan Daniele - Drums


Technical info

Input File: 02 The Time Has Come.mp3
Channels : 2
Sample Rate : 44100
Precision : 16-bit
Duration : 00:04:56.67 = 13082971 samples = 22250 CDDA sectors
File Size : 12.5M
Bit Rate : 337k
Sample Encoding: MPEG audio (layer I, II or III)
Comments :
Title=The Time Has Come
Artist=Infinita Symphonia
Album=Liberation
Tracknumber=2/11
Year=2018
Genre=Rock
Discnumber=1/1



Register


Go to the top of the page
  Insert nick Quick quote
+Quote Post
 
Start new topic
Replies (1 - 3)
post Dec 7 2018, 12:09:36
Post #2

тебе 28, а ты все реверсами балуешься
**********
Group: Металариец
Posts: 1,476
Releases: 4
On Forums: 10 years 4 months
Thanks: 378 time(s)
Russian Federation


Басист в клипе вроде играет, а баса я лично не слышу 1488.gif
Музыка под настроение - не то весёлая, не то тяжёлая. Странноватая для меня 16.gif .
Go to the top of the page
  Insert nick Quick quote
+Quote Post
post Dec 7 2018, 12:59:16
Post #3

ухо-горло-нос
*******
Group: Металариец
Posts: 789
Releases: 0
From: Севастополь
On Forums: 8 years 3 months
Thanks: 354 time(s)
Russian Federation


Одобрям-с. Ассоциация Мировых Ухогорлоносов.

Превью замечательное.

Рекомендации к прослушиванию.
Go to the top of the page
  Insert nick Quick quote
+Quote Post
post Dec 7 2018, 17:09:16
Post #4

21st Century Schizoid Man
**************
Group: Металариец
Posts: 5,487
Releases: 67
From: Moscow
On Forums: 10 years 7 months
Thanks: 4244 time(s)
Russian Federation


Ну дык. В превью подпевает не кто иной, как Ральф "пре-Киске" Шиперс. Вот родной вокалист слабоват на его уровне.
Go to the top of the page
  Insert nick Quick quote
+Quote Post

Reply to this topicStart new topic
1 User(s) are reading this topic (1 Guests and 0 Anonymous Users)
0 Members:

 



- Lo-Fi Version Support form
Copyrights and abuse reports form
Time is now: 12th December 2018 - 18:09:23