X   Site Message
(Message will auto close in 2 seconds)

Welcome Guest ( Log In | Register )

> Releases Upload / Добавление релизов

Добавить релиз тут / Click here to add release
Рекомендованные обменники / Recommended file shares

 
Reply to this topicStart new topic
> Battle At Sea - Battle At Sea (2019), Progressive Sludge/Stoner Metal
post Jan 12 2019, 10:45:02
Post #1

Аннигилятор пивА
Group Icon
Group: V.I.P
Posts: 51,476
Releases: 16166
From: Koenigsberg - TILZIT
On Forums: 12 years 7 months
Thanks: 351596 time(s)
Russian Federation




*Artist: Battle At Sea
*Album: Battle At Sea
*Year: 2019
*Genre: Progressive Sludge/Stoner Metal
*Country: United States
*Format: mp3@CBR320kbps
*Size: 110MB

Tracklist:
1. Amphibian 06:10
2. Phage 06:32
3. The Hollow 04:45
4. Colossus 07:36
5. The Fountain 05:01
6. Beware! The Kraken! 04:45
7. Silence from the Sky 12:16
******************************
Total playing time: 47:05




Extended info
Joe Sharar - Bass, Vocals (Agonist)
Eddie Anton - Drums, Vocals
Vegas Grimwood - Guitars, Vocals (The Ancient Stone)


Technical info

Input File: Battle at Sea - Battle at Sea - 03 The Hollow.mp3
Channels : 2
Sample Rate : 44100
Precision : 16-bit
Duration : 00:04:45.61 = 12595489 samples = 21420.9 CDDA sectors
File Size : 11.6M
Bit Rate : 324k
Sample Encoding: MPEG audio (layer I, II or III)
Comments :
Title=The Hollow
Artist=Battle at Sea
Album=Battle at Sea
Tracknumber=3
Year=2019



Register


Thanks:
Go to the top of the page
  Insert nick Quick quote
+Quote Post

Reply to this topicStart new topic
3 User(s) are reading this topic (3 Guests and 0 Anonymous Users)
0 Members:

 



- Lo-Fi Version Support form
Copyrights and abuse reports form
Time is now: 19th January 2019 - 12:02:39