X   Site Message
(Message will auto close in 2 seconds)

Welcome Guest ( Log In | Register )

> Releases Upload / Добавление релизов

Добавить релиз тут / Click here to add release
Рекомендованные обменники / Recommended file shares

 
Reply to this topicStart new topic
> Ywarsgoreromance - No Name Pussy [ep] (2019), Grindcore
post Jan 12 2019, 14:41:39
Post #1

Serial Uploader
Group Icon
Group: V.I.P
Posts: 33,571
Releases: 31834
From: Lithuania
On Forums: 10 years 7 months
Thanks: 363423 time(s)
Lithuania




*Artist: Ywarsgoreromance
*Album: No Name Pussy [ep]
*Year: 2019
*Genre: Grindcore
*Country: Russian Federation
*Format: mp3@CBR320kbps
*Size: 20MB

Tracklist:
01. Бестоло 00:59
02. Отчим 02:15
03. Райскоенаслождение 01:43
04. Запаснаянелишняя 02:01
05. 47яправославная 01:30
******************************
Total playing time: 8:28

Preview 1


Technical info

Input File: 02. ą×ąóą¦ąśą£.mp3
Channels : 2
Sample Rate : 44100
Precision : 16-bit
Duration : 00:02:15.56 = 5978020 samples = 10166.7 CDDA sectors
File Size : 5.50M
Bit Rate : 325k
Sample Encoding: MPEG audio (layer I, II or III)
Comments :
Title=ОТЧИМ
Artist=ywarsgoreromance
Album=NO NAME PUSSY
Tracknumber=2
Year=2018



Register


Go to the top of the page
  Insert nick Quick quote
+Quote Post

Reply to this topicStart new topic
3 User(s) are reading this topic (3 Guests and 0 Anonymous Users)
0 Members:

 



- Lo-Fi Version Support form
Copyrights and abuse reports form
Time is now: 19th January 2019 - 10:12:53