X   Site Message
(Message will auto close in 2 seconds)

Welcome Guest ( Log In | Register )

> Releases Upload / Добавление релизов

Добавить релиз тут / Click here to add release
Рекомендованные обменники / Recommended file shares

> Wolfmachine - Wolfmachine (2018), Black Metal
post Jan 12 2019, 19:41:38
Post #1

Правь статус, ####!111
**************
Group: Металариец
Posts: 3,489
Releases: 760
From: Brazil
On Forums: 6 years 11 months
Thanks: 28910 time(s)
Brazil




*Artist: Wolfmachine
*Album: Wolfmachine
*Year: 2018
*Genre: Black Metal
*Country: Netherlands
*Format: mp3@CBR320kbps
*Size: 102MB

Tracklist:
01. Intro 06:33
02. Wolfmachine pt. 1 17:26
03. Interlude 02:47
04. Wolfmachine pt. 2 14:14
05. Outro 03:07
******************************
Total playing time: 44:07



Extended info
CD released by Arcane Angels


Technical info

Input File: 03 Interlude.mp3
Channels : 2
Sample Rate : 44100
Precision : 16-bit
Duration : 00:02:47.06 = 7367434 samples = 12529.6 CDDA sectors
File Size : 6.68M
Bit Rate : 320k
Sample Encoding: MPEG audio (layer I, II or III)
Comments :
Title=Interlude
Artist=Wolfmachine
Album=Wolfmachine
Tracknumber=3
Year=2018



Register


Go to the top of the page
  Insert nick Quick quote
+Quote Post
 
Start new topic
Replies (1 - 1)
post Jan 14 2019, 17:45:06
Post #2

Мегаманьяк
***********
Group: Металариец
Posts: 1,979
Releases: 0
From: Dnipro
On Forums: 10 years 6 months
Thanks: 506 time(s)
Ukraine


А не плохо ведь true_black.gif
Go to the top of the page
  Insert nick Quick quote
+Quote Post

Reply to this topicStart new topic
2 User(s) are reading this topic (2 Guests and 0 Anonymous Users)
0 Members:

 



- Lo-Fi Version Support form
Copyrights and abuse reports form
Time is now: 19th January 2019 - 12:03:00