X   Site Message
(Message will auto close in 2 seconds)

Welcome Guest ( Log In | Register )

> Releases Upload / Добавление релизов

Добавить релиз тут / Click here to add release
Рекомендованные обменники / Recommended file shares

> Insonus - The Will To Nothingness (2018), Black Metal
post Jan 12 2019, 19:27:39
Post #1

Правь статус, ####!111
**************
Group: Металариец
Posts: 3,489
Releases: 760
From: Brazil
On Forums: 6 years 11 months
Thanks: 28910 time(s)
Brazil




*Artist: Insonus
*Album: The Will To Nothingness
*Year: 2018
*Genre: Black Metal
*Country: Italy
*Format: mp3@CBR320kbps
*Size: 118MB

Tracklist:
1. The Will to Nothingness I 06:31
2. The Will to Nothingness II 07:56
3. The Will to Nothingness III 09:51
4. The Will to Nothingness IV 07:46
5. The Will to Nothingness V 07:34
6. The Will to Nothingness VI 11:00
******************************
Total playing time: 50:38



Technical info

Input File: 01 The Will to Nothingness I.mp3
Channels : 2
Sample Rate : 44100
Precision : 16-bit
Duration : 00:06:31.07 = 17246363 samples = 29330.5 CDDA sectors
File Size : 15.6M
Bit Rate : 320k
Sample Encoding: MPEG audio (layer I, II or III)
Comments :
Title=The Will to Nothingness I
Artist=Insonus
Album=The Will to Nothingness
Tracknumber=1
Year=2018



Register


Go to the top of the page
  Insert nick Quick quote
+Quote Post
 
Start new topic
Replies (1 - 2)
post Jan 15 2019, 22:32:24
Post #2

MDM-Thrash Metal
**************
Group: Металариец
Posts: 7,412
Releases: 425
From: Одесса
On Forums: 11 years 5 months
Thanks: 14037 time(s)
Ukraine


Register


Thanks:
(1) VALERY,
Go to the top of the page
  Insert nick Quick quote
+Quote Post
post Jan 15 2019, 22:37:58
Post #3

Правь статус, ####!111
**************
Group: Металариец
Posts: 36,460
Releases: 537
On Forums: 9 years 7 months
Thanks: 28200 time(s)
Russian Federation


Это скелетон давится своей кишкой шоли?

Ну и обложка, давно подобного примитива не было

1488.gif
Go to the top of the page
  Insert nick Quick quote
+Quote Post

Reply to this topicStart new topic
1 User(s) are reading this topic (1 Guests and 0 Anonymous Users)
0 Members:

 



- Lo-Fi Version Support form
Copyrights and abuse reports form
Time is now: 19th January 2019 - 11:59:52