X   Site Message
(Message will auto close in 2 seconds)

Welcome Guest ( Log In | Register )

> Releases Upload / Добавление релизов

Добавить релиз тут / Click here to add release
Рекомендованные обменники / Recommended file shares

> Battle Dagorath - I - Dark Dragons Of The Cosmos & II - Frozen Light Of Eternal Darkness [box set] (2018), Atmospheric Black Metal
post Jan 12 2019, 19:19:48
Post #1

filed under desecration
Group Icon
Group: S-moderation team
Posts: 8,816
Releases: 1705
On Forums: 10 years 5 months
Thanks: 101469 time(s)
Unknown




*Artist: Battle Dagorath
*Album: I - Dark Dragons Of The Cosmos & II - Frozen Light Of Eternal Darkness [box set]
*Year: 2018
*Genre: Atmospheric Black Metal
*Country: United States
*Format: mp3@CBR320kbps
*Size: 330MB

Tracklist:
1. I - From The Black Sun's Fire 03:12
2. I - Phantom Horizons Beyond 13:50
3. I - Return To Gates Of Dawn 13:01
4. I - Through The Rite Of The Stars 13:54
5. I - Transfixion Of The Spheres 11:21
6. I - Psychic Abduction 02:27
7. II - The Great Untuning 01:03
8. II - Death Ov Aeons 11:19
9. II - Asteres Planetai 10:05
10. II - Cast Their Ashes To The North Wind 19:12
11. II - Evoking The Mirrors 09:49
12. II - Fire Born From The Seer's Light 09:53
13. II - Supernal Realms 09:50
14. II - Ignis Fatuus 08:10
******************************
Total playing time: 2:17:06



Extended info
Fólkvangr Records / Out Of Season, February 24th

2 x tape-boxed set limited to 100 copies.


Technical info

Input File: 01 The Great Untuning.mp3
Channels : 2
Sample Rate : 44100
Precision : 16-bit
Duration : 00:01:04.06 = 2824958 samples = 4804.35 CDDA sectors
File Size : 2.57M
Bit Rate : 320k
Sample Encoding: MPEG audio (layer I, II or III)
Comments :
Title=The Great Untuning
Artist=Battle Dagorath
Album=I - Dark Dragons of the Cosmos & II - Frozen Light of Eternal Darkness
Tracknumber=01/14
Year=2018
Genre=Black Metal
Discnumber=2/2



Register


Go to the top of the page
  Insert nick Quick quote
+Quote Post
 
Start new topic
Replies (1 - 3)
post Jan 13 2019, 09:19:12
Post #2

Absorbence
***********
Group: Металариец
Posts: 1,636
Releases: 215
From: Vastland Abyss of Cthulhu
On Forums: 12 years 2 months
Thanks: 3656 time(s)
Canada


cool shit, bro, thanks for sharing 20.gif 20.gif
Go to the top of the page
  Insert nick Quick quote
+Quote Post
post Jan 13 2019, 09:29:48
Post #3


***********
Group: Металариец
Posts: 1,764
Releases: 14
From: Казань
On Forums: 9 years 4 months
Thanks: 2226 time(s)
Russian Federation


Космического диалога не будет. В космосе возможны лишь монологи (ↄ)


Thanks:
Go to the top of the page
  Insert nick Quick quote
+Quote Post
post Jan 15 2019, 14:26:10
Post #4

De Mysteriis Dom Sathanas
**************
Group: Металариец
Posts: 3,376
Releases: 63
From: Москва
On Forums: 10 years 6 months
Thanks: 2886 time(s)
Russian Federation


Один из лучших релизов прошлого года! pray.gif
Go to the top of the page
  Insert nick Quick quote
+Quote Post

Reply to this topicStart new topic
1 User(s) are reading this topic (1 Guests and 0 Anonymous Users)
0 Members:

 



- Lo-Fi Version Support form
Copyrights and abuse reports form
Time is now: 19th January 2019 - 09:52:02