X   Site Message
(Message will auto close in 2 seconds)

Welcome Guest ( Log In | Register )

> Releases Upload / Добавление релизов

Добавить релиз тут / Click here to add release
Рекомендованные обменники / Recommended file shares

> Wishdoomdark - My Journey In The Hell (2016), Doom/Death Metal
post Jan 12 2019, 17:32:51
Post #1

Аннигилятор пивА
Group Icon
Group: V.I.P
Posts: 51,477
Releases: 16166
From: Koenigsberg - TILZIT
On Forums: 12 years 7 months
Thanks: 351596 time(s)
Russian Federation




*Artist: Wishdoomdark
*Album: My Journey In The Hell
*Year: 2016
*Genre: Doom/Death Metal
*Country: Russian Federation
*Format: mp3@CBR320kbps
*Size: 73MB

Tracklist:
01. Im Die
02. My Journey In The Hell
03. Lord Of Haos
04. Murder (Katatonia cover)
05. Intro
06. In Hell
07. Outro
******************************
Total playing time: 38:07



Extended info
Druid - Bass
Anna Staiger - Keyboards, Vocals
Nemez - Drums
Alex Ezeptrone - Vocals, Guitars


Technical info

Input File: 02. My Journey In The Hell.mp3
Channels : 2
Sample Rate : 44100
Precision : 16-bit
Duration : 00:02:40.82 = 7091942 samples = 12061.1 CDDA sectors
File Size : 6.43M
Bit Rate : 320k
Sample Encoding: MPEG audio (layer I, II or III)
Comments :
Title=My Journey In The Hell
Artist=Wishdoomdark
Album=My Journey In The Hell
Tracknumber=02
Year=2016



Register


Go to the top of the page
  Insert nick Quick quote
+Quote Post
 
Start new topic
Replies (1 - 3)
post Jan 14 2019, 14:42:23
Post #2

Пять Литров
*****
Group: Металариец
Posts: 432
Releases: 0
From: South Of Heaven
On Forums: 11 years 5 months
Thanks: 167 time(s)
Ukraine


От очень-же хорошая музыка, как для жанра ,но жуткую досаду у меня вызывают неимоверно короткие трэки-по 3минуты в среднем, при том что неинтересное "Outro" тянется ажж 19.04 ....вот за что такое ??? 17.gif
Go to the top of the page
  Insert nick Quick quote
+Quote Post
post Jan 14 2019, 17:51:57
Post #3

Мегаманьяк
***********
Group: Металариец
Posts: 1,979
Releases: 0
From: Dnipro
On Forums: 10 years 6 months
Thanks: 506 time(s)
Ukraine


ЦИТАТА(russ777 @ Jan 14 2019, 15:42:23) *
От очень-же хорошая музыка, как для жанра ,но жуткую досаду у меня вызывают неимоверно короткие трэки-по 3минуты в среднем, при том что неинтересное "Outro" тянется ажж 19.04 ....вот за что такое ??? 17.gif
Сплошной штамп, ни одной своей идеи. Хотя 1,2,3 и 6 песенки симпатичные. Девочка тут кстати в тему.
Go to the top of the page
  Insert nick Quick quote
+Quote Post
post Jan 15 2019, 14:11:19
Post #4

Пять Литров
*****
Group: Металариец
Posts: 432
Releases: 0
From: South Of Heaven
On Forums: 11 years 5 months
Thanks: 167 time(s)
Ukraine


ЦИТАТА(isvili @ 14th January 2019 - 18:51:57) *
Хотя 1,2,3 и 6 песенки симпатичные. Девочка тут кстати в тему.

- Симпатичные, да коротенькие... как-будто "демо версия".. hmm.gif
и да - девочка в тему.
Go to the top of the page
  Insert nick Quick quote
+Quote Post

Reply to this topicStart new topic
2 User(s) are reading this topic (2 Guests and 0 Anonymous Users)
0 Members:

 



- Lo-Fi Version Support form
Copyrights and abuse reports form
Time is now: 19th January 2019 - 12:10:21