X   Site Message
(Message will auto close in 2 seconds)

Welcome Guest ( Log In | Register )

> Releases Upload / Добавление релизов

Добавить релиз тут / Click here to add release
Рекомендованные обменники / Recommended file shares

 
Reply to this topicStart new topic
> Ferum - Vergence [ep] (2018), Death/Doom Metal
post Jan 12 2019, 17:26:49
Post #1

Правь статус, ####!111
**************
Group: Металариец
Posts: 15,694
Releases: 10659
From: Г.Харьков
On Forums: 6 years 8 months
Thanks: 177299 time(s)
Unknown




*Artist: Ferum
*Album: Vergence [ep]
*Year: 2018
*Genre: Death/Doom Metal
*Country: Italy
*Format: mp3@CBR320kbps
*Size: 57MB

Tracklist:
1. Siege of Carnality 04:20
2. Perpetual Distrust 04:44
3. Subconscious Annihilation 04:38
4. Funeral (Cianide cover) 05:48
5. Ed è subito sera (Outro) 04:53
******************************
Total playing time: 24:23




Extended info
Matteo Bass (2017-present)
See also: Silent Moriah
Angelica Drums (2017-present)
See also: Saturnine
Samantha Vocals, Guitars (2017-present)
See also: Saturnine, Katakombi (live), ex-Undead Creep, Egestas


Technical info

Input File: 02 - Perpetual Distrust.mp3
Channels : 2
Sample Rate : 44100
Precision : 16-bit
Duration : 00:04:45.04 = 12570132 samples = 21377.8 CDDA sectors
File Size : 11.6M
Bit Rate : 327k
Sample Encoding: MPEG audio (layer I, II or III)
Comments :
Title=Perpetual Distrust
Artist=Ferum
Album=Vergence
Tracknumber=2
Year=2018



Register


Go to the top of the page
  Insert nick Quick quote
+Quote Post

Reply to this topicStart new topic
2 User(s) are reading this topic (2 Guests and 0 Anonymous Users)
0 Members:

 



- Lo-Fi Version Support form
Copyrights and abuse reports form
Time is now: 19th January 2019 - 10:01:59