X   Site Message
(Message will auto close in 2 seconds)

Welcome Guest ( Log In | Register )

> Releases Upload / Добавление релизов

Добавить релиз тут / Click here to add release
Рекомендованные обменники / Recommended file shares

> Wishdoomdark - Blood Of The Black God (2018), Doom/Death Metal
post Jan 12 2019, 17:13:32
Post #1

Аннигилятор пивА
Group Icon
Group: V.I.P
Posts: 51,474
Releases: 16166
From: Koenigsberg - TILZIT
On Forums: 12 years 7 months
Thanks: 351585 time(s)
Russian Federation




*Artist: Wishdoomdark
*Album: Blood Of The Black God
*Year: 2018
*Genre: Doom/Death Metal
*Country: Russian Federation
*Format: mp3@CBR320kbps
*Size: 54MB

Tracklist:
01. Blood Of The Black God
02. Infernal Fires
03. Song For The Black God
04. I Hate Humans
05. Storm
06. I Want To Die
07. Pagan Doom
******************************
Total playing time: 27:02



Extended info
Alex Kleschin - Drums
Sergey Chernikov - Guitars See also: ex-Sangvis
Alex Ezeptrone - Vocals, Guitars See also: ex-Gartraada
Druid - Bass (2017-present) See also: Necrotic Effect
Angelina Mozhnova - Keyboards (2017-present)
A new album of the group Wishdoomdark is approaching the work of the classic doom death metal groups of the mid-90s. To this it is worth adding that the sound on this album is as close as possible to the great albums of groups such as: Tiamat, The Gathering, My Dying Bride, Amorphis and Paradise Lost! Listen and you will not regret !!!.


Technical info

Input File: 02. Infernal Fires.mp3
Channels : 2
Sample Rate : 44100
Precision : 16-bit
Duration : 00:03:26.05 = 9086937 samples = 15454 CDDA sectors
File Size : 8.24M
Bit Rate : 320k
Sample Encoding: MPEG audio (layer I, II or III)
Comments :
Title=Infernal Fires
Artist=Wishdoomdark
Album=Blood Of The Black God
Tracknumber=02
Year=2018



Register


Go to the top of the page
  Insert nick Quick quote
+Quote Post
 
Start new topic
Replies (1 - 1)
post Jan 15 2019, 14:28:05
Post #2

Пять Литров
*****
Group: Металариец
Posts: 432
Releases: 0
From: South Of Heaven
On Forums: 11 years 5 months
Thanks: 167 time(s)
Ukraine


Нормальный такой, олдскульный Doom/Death metaler.gif
Больше всего понравился 1-й трэк , он-же и самый длинный- аж 6:28. smile1.gif
Go to the top of the page
  Insert nick Quick quote
+Quote Post

Reply to this topicStart new topic
1 User(s) are reading this topic (1 Guests and 0 Anonymous Users)
0 Members:

 



- Lo-Fi Version Support form
Copyrights and abuse reports form
Time is now: 19th January 2019 - 10:02:34