X   Site Message
(Message will auto close in 2 seconds)

Welcome Guest ( Log In | Register )

> Releases Upload / Добавление релизов

Добавить релиз тут / Click here to add release
Рекомендованные обменники / Recommended file shares

> Othuum - The Astral Horror (2019), Doom Metal
post Jan 12 2019, 14:09:30
Post #1

Правь статус, ####!111
**************
Group: Металариец
Posts: 15,694
Releases: 10659
From: Г.Харьков
On Forums: 6 years 8 months
Thanks: 177315 time(s)
Unknown




*Artist: Othuum
*Album: The Astral Horror
*Year: 2019
*Genre: Doom Metal
*Country: Germany
*Format: mp3@CBR320kbps
*Size: 108MB

Tracklist:
1. Exordium 00:47
2. Curse of Darkness 10:18
3. Black Corpse River 07:08
4. The Anti-Cosmic God 08:19
5. Infernal Tentacle Wars 09:05
6. City Of The Dreaming Dead 11:16
******************************
Total playing time: 46:53



Extended info
Max Bass (2016-present)
See also: Atomgott, ex-Vatikan Riots
Marschhausen Drums (2016-present)
See also: Satan's Propaganda, Vergeltung, ex-Grabnebelfürsten
Der Ernst des Lebens Guitars (lead) (2016-present)
See also: Satan's Propaganda, ex-Azrael's Tears, ex-Grabnebelfürsten, ex-Eternal Frost


Technical info

Input File: 03 - Black Corpse River.mp3
Channels : 2
Sample Rate : 44100
Precision : 16-bit
Duration : 00:07:08.80 = 18909948 samples = 32159.8 CDDA sectors
File Size : 17.3M
Bit Rate : 322k
Sample Encoding: MPEG audio (layer I, II or III)
Comments :
Title=Black Corpse River
Artist=Othuum
Album=The Astral Horror
Tracknumber=3
Year=2019



Register


Go to the top of the page
  Insert nick Quick quote
+Quote Post
 
Start new topic
Replies (1 - 1)
post Jan 12 2019, 15:43:49
Post #2

Правь статус, ####!111
**************
Group: Металариец
Posts: 15,694
Releases: 10659
From: Г.Харьков
On Forums: 6 years 8 months
Thanks: 177315 time(s)
Unknown


Cloud Mail 320
Register


Thanks:
(1) Leshiy666,
Go to the top of the page
  Insert nick Quick quote
+Quote Post

Reply to this topicStart new topic
2 User(s) are reading this topic (2 Guests and 0 Anonymous Users)
0 Members:

 



- Lo-Fi Version Support form
Copyrights and abuse reports form
Time is now: 19th January 2019 - 12:05:49