X   Site Message
(Message will auto close in 2 seconds)

Welcome Guest ( Log In | Register )

> Releases Upload / Добавление релизов

Добавить релиз тут / Click here to add release
Рекомендованные обменники / Recommended file shares

 
Reply to this topicStart new topic
> Various Artists - Doom.Metal.PL [compilation] (2004), Death/Doom/Gothic Metal
post Jan 12 2019, 10:51:19
Post #1


Group Icon
Group: S-moderation team
Posts: 8,228
Releases: 1418
On Forums: 7 years 10 months
Thanks: 40213 time(s)
Croatia




*Artist: Various Artists
*Album: Doom.Metal.PL [compilation]
*Year: 2004
*Genre: Death/Doom/Gothic Metal
*Country: Poland
*Format: mp3@VBR214kbps
*Size: 223MB

Tracklist:
CD 1:
01. Mar de Grisen - Storm 10:18
02. Fall of Empyrean - This Paradise Crumbles 08:20
03. Lapsus Dei - El Silencio De Mi Dolor 09:52
04. Officium Triste - A Journey Through Lowlands Green (remastered) 05:09
05. The Eternal - The Eternal 08:26
06. Cemetery of Scream - Cult 05:51
07. Ningizzia - Point of No Return 09:06
08. Whispering Gallery - Touched by the Stars II 04:48
09. Lux Incerta - Clear Water 07:24
CD 2:
01. Forever Autumn - Sto Lat 04:13
02. This Tangled Web - Exploits 06:15
03. Morphia - Emptiness 07:01
04. Carnal - Curse this Day 07:51
05. The Knell - Black Veil 05:23
06. Bitterdusk - Pagan Angel 07:53
07. Gardens of Gehenna - Tod und Teutel 05:25
08. Eternal Tear - Coma 05:53
09. Medebor - Arch Mysteria 06:00
10. Neolithic - Falling Dawn 05:55
11. Quercus - Ravine Burden Thorns 12:47
12. Indicium - Wicked Ghosts 04:48
******************************
Total playing time: 2:28:38

Extended info
Discogs
Scene Rip.


Technical info

Input File: 206-bitterdusk-pagan_angel-gw.mp3
Channels : 2
Sample Rate : 44100
Precision : 16-bit
Duration : 00:07:53.94 = 20900710 samples = 35545.4 CDDA sectors
File Size : 13.1M
Bit Rate : 222k
Sample Encoding: MPEG audio (layer I, II or III)
Comments :
Title=Pagan Angel
Artist=Bitterdusk
Album=Doom Metal Pl
Tracknumber=6
Year=2004
Genre=9



Register


Go to the top of the page
  Insert nick Quick quote
+Quote Post

Reply to this topicStart new topic
1 User(s) are reading this topic (1 Guests and 0 Anonymous Users)
0 Members:

 



- Lo-Fi Version Support form
Copyrights and abuse reports form
Time is now: 19th January 2019 - 11:59:09