X   Site Message
(Message will auto close in 2 seconds)

Welcome Guest ( Log In | Register )

> Releases Upload / Добавление релизов

Добавить релиз тут / Click here to add release
Рекомендованные обменники / Recommended file shares

 
Reply to this topicStart new topic
> Metalurgia - Paradigmas [ep] (2019), Instrumental Progressive Metal
post Jan 12 2019, 07:45:39
Post #1

Мегаманьяк
***********
Group: Металариец
Posts: 1,527
Releases: 1309
From: Одесса
On Forums: 10 years 7 months
Thanks: 10336 time(s)
Ukraine




*Artist: Metalurgia
*Album: Paradigmas [ep]
*Year: 2019
*Genre: Instrumental Progressive Metal
*Country: Dominican Republic
*Format: mp3@CBR320kbps
*Size: 32MB

Tracklist:
1. Ampliando Conocimiento 07:23
2. Paradigmas 05:37
******************************
Total playing time: 13:00



Extended info
Line - up:

Guillermo Armenteros - Bass (Marfedelom, ex-Macabraa)
Mario Luis Ventura - Drums (AntiHippie, Zero, ex-Vestidos)
Daniel Acosta - Guitars (lead)
Miguel Sosa - Guitars (rhythm) (Medulah, ex-Macabraa)
Ariel Sánchez - Guitars (rhythm) (Necro, Nux)



Technical info

Input File: 02. Paradigmas.mp3
Channels : 2
Sample Rate : 48000
Precision : 16-bit
Duration : 00:05:37.35 = 16192656 samples ~ 25301 CDDA sectors
File Size : 13.5M
Bit Rate : 320k
Sample Encoding: MPEG audio (layer I, II or III)
Comments :
Title=Paradigmas
Artist=Metalurgia
Album=Paradigmas (EP)
Tracknumber=2
Year=2019
Genre=Instrumental Progressive Metal



Register


Thanks:
Go to the top of the page
  Insert nick Quick quote
+Quote Post

Reply to this topicStart new topic
1 User(s) are reading this topic (1 Guests and 0 Anonymous Users)
0 Members:

 



- Lo-Fi Version Support form
Copyrights and abuse reports form
Time is now: 19th January 2019 - 11:55:27