X   Site Message
(Message will auto close in 2 seconds)

Welcome Guest ( Log In | Register )

> Releases Upload / Добавление релизов

Добавить релиз тут / Click here to add release
Рекомендованные обменники / Recommended file shares

 
Reply to this topicStart new topic
> Catatonic Profanation - Rancid Vexations [ep] (2018), Brutal Death Metal
post Jan 11 2019, 14:25:25
Post #1

Serial Uploader
Group Icon
Group: V.I.P
Posts: 33,571
Releases: 31834
From: Lithuania
On Forums: 10 years 7 months
Thanks: 363423 time(s)
Lithuania




*Artist: Catatonic Profanation
*Album: Rancid Vexations [ep]
*Year: 2018
*Genre: Brutal Death Metal
*Country: United States
*Format: mp3@CBR320kbps
*Size: 21MB

Tracklist:
01. Deluded Cleansing 03:34
02. Father of the Void 02:38
03. Engorged in Maggots 02:45
******************************
Total playing time: 8:57





Technical info

Input File: 02. Father of the Void (ft. Eli Vincent of Dehumanize).mp3
Channels : 2
Sample Rate : 44100
Precision : 16-bit
Duration : 00:02:38.62 = 6995318 samples = 11896.8 CDDA sectors
File Size : 6.53M
Bit Rate : 329k
Sample Encoding: MPEG audio (layer I, II or III)
Comments :
Title=Father of the Void (ft. Eli Vincent of Dehumanize)
Artist=Catatonic Profanation
Album=Rancid Vexations
Tracknumber=2
Year=2018



Register


Go to the top of the page
  Insert nick Quick quote
+Quote Post

Reply to this topicStart new topic
2 User(s) are reading this topic (2 Guests and 0 Anonymous Users)
0 Members:

 



- Lo-Fi Version Support form
Copyrights and abuse reports form
Time is now: 19th January 2019 - 12:00:27