X   Site Message
(Message will auto close in 2 seconds)

Welcome Guest ( Log In | Register )

> 

Здесь релизы с живыми прямыми ссылками на lossless

> Sargeist - Unbound (2018), Black Metal
post Oct 11 2018, 03:54:11
Post #1

Правь статус, ####!111
**************
Group: Металариец
Posts: 15,736
Releases: 10687
From: Г.Харьков
On Forums: 6 years 8 months
Thanks: 177725 time(s)
Unknown




*Artist: Sargeist
*Album: Unbound
*Year: 2018
*Genre: Black Metal
*Country: Finland
*Format: mp3@CBR320kbps
*Size: 107MB

Tracklist:
1. Psychosis Incarnate 04:08
2. To Wander the Night's Eternal Path 04:14
3. The Bosom of Wisdom and Madness 05:12
4. Death's Empath 03:17
5. Hunting Eyes 06:09
6. Her Mouth is an Open Grave 05:47
7. Unbound 05:27
8. Blessing of the Fire-Bearer 05:01
9. Wake of the Compassionate 04:28
10. Grail of the Pilgrim 03:31
******************************
Total playing time: 47:14




Extended info
Shatraug Bass, Guitars, Vocals
VJS Guitars
Abysmal Bass
Gruft Drums
Profundus Vocals


Technical info

Input File: 03 The Bosom of Wisdom and Madness.mp3
Channels : 2
Sample Rate : 44100
Precision : 16-bit
Duration : 00:05:12.24 = 13769564 samples = 23417.6 CDDA sectors
File Size : 12.5M
Bit Rate : 320k
Sample Encoding: MPEG audio (layer I, II or III)
Comments :
Title=The Bosom of Wisdom and Madness
Artist=SARGEIST
Album=Unbound
Tracknumber=3
Year=2019
Genre=Black Metal



Register


Go to the top of the page
  Insert nick Quick quote
+Quote Post
3 Pages V  < 1 2 3  
Start new topic
Replies (60 - 64)
post Jan 11 2019, 22:22:46
Post #61

ретроград
**************
Group: Металариец
Posts: 4,668
Releases: 176
On Forums: 11 years 7 months
Thanks: 6792 time(s)
Vatican City


ЦИТАТА(6666666 @ Jan 11 2019, 23:38:46) *
Да тут они оба друг на друга подливу льют. Один хреноту какую-то написал про альбом, второй до него криво-косо докопался.

Главный специалист подкатил. Без тебя бы не разобрались...
Go to the top of the page
  Insert nick Quick quote
+Quote Post
post Jan 12 2019, 03:10:05
Post #62

балабол
**********
Group: Металариец
Posts: 1,414
Releases: 1
On Forums: 7 years 9 months
Thanks: 1097 time(s)
Russian Federation


Помнится первый альбом был отл., в остальном как то безыдейно и скучно. Есть в Финляндии команды и покруче.
Go to the top of the page
  Insert nick Quick quote
+Quote Post
post Jan 12 2019, 06:37:19
Post #63

Group: Подсевший
Posts: 13
Releases: 0
On Forums: 8 years 4 months
Thanks: 13 time(s)
Russian Federation


Что за дичь. Я конечно слышал, что тут неадекватов зашкаливает. Но чтобы настолько.
Ну не нравится кому-то, понравившийся тебе альбом. Забей половой орган и пройди мимо. Но нет, надо вставить никому ненужное (кроме себя любимого) всратое мнение "вы не правы альбом крут". Будто это изменит оценку. Так к альбому мейхем мне уже начали кидать претензии в подобном ключе. 21.gif
Go to the top of the page
  Insert nick Quick quote
+Quote Post
post Jan 12 2019, 06:50:42
Post #64

Group: Подсевший
Posts: 13
Releases: 0
On Forums: 8 years 4 months
Thanks: 13 time(s)
Russian Federation


ЦИТАТА(lafuma @ Jan 12 2019, 03:10:05) *
Помнится первый альбом был отл., в остальном как то безыдейно и скучно. Есть в Финляндии команды и покруче.

Sargeist я переслушал очень много, и пришёл к выводу что всё творчество сих некий собирательный образ "родственных" групп. Хочешь хорну середины 2000ых? На тебе сатаник блэк девоушн (и последующий). Хочешь "помоднее" а-ля бехексен? Держи лет зе девил ин. (ну и опять же, последующий). Ну и т.д. А конкретно тут, образ уже начинает вырисовываться свой. , похоже. (Мне лично который не приглянулся).
Go to the top of the page
  Insert nick Quick quote
+Quote Post
post Jan 12 2019, 18:00:54
Post #65

Четыре Литра
****
Group: Металариец
Posts: 338
Releases: 0
On Forums: 5 years 5 months
Thanks: 192 time(s)
Australia


QUOTE(TenBestial @ Jan 12 2019, 06:37:19) *
Что за дичь. Я конечно слышал, что тут неадекватов зашкаливает. Но чтобы настолько.
Ну не нравится кому-то, понравившийся тебе альбом. Забей половой орган и пройди мимо. Но нет, надо вставить никому ненужное (кроме себя любимого) всратое мнение "вы не правы альбом крут". Будто это изменит оценку. Так к альбому мейхем мне уже начали кидать претензии в подобном ключе. 21.gif

1488.gif
Go to the top of the page
  Insert nick Quick quote
+Quote Post

3 Pages V  < 1 2 3
Reply to this topicStart new topic
2 User(s) are reading this topic (2 Guests and 0 Anonymous Users)
0 Members:

 



- Lo-Fi Version Support form
Copyrights and abuse reports form
Time is now: 23rd January 2019 - 02:39:17