X   Site Message
(Message will auto close in 2 seconds)

Welcome Guest ( Log In | Register )

> Releases Upload / Добавление релизов

Добавить релиз тут / Click here to add release
Рекомендованные обменники / Recommended file shares

> Wrang - Domstad Swart Metael (2019), Black Metal
post Jan 10 2019, 09:10:38
Post #1

Аннигилятор пивА
Group Icon
Group: V.I.P
Posts: 51,474
Releases: 16166
From: Koenigsberg - TILZIT
On Forums: 12 years 7 months
Thanks: 351584 time(s)
Russian Federation




*Artist: Wrang
*Album: Domstad Swart Metael
*Year: 2019
*Genre: Black Metal
*Country: Netherlands
*Format: mp3@CBR320kbps
*Size: 82MB

Tracklist:
1. Domstad Swart Metael 08:24
2. Tot Dwalen Verdomd 06:25
3. Propaganda Der Afvalligen 06:52
4. Stormend Naar De Nietigheid 05:41
5. Heerser Van Niemandsland 07:37
******************************
Total playing time: 34:59




Extended info
Galgenvot - Vocals/guitars
Valr - Drums
Cathamas - Bass
Mercur - Guitars (live)
Vuygh - Guitars (live)

Guest vocals on 'Domstad swart metael' by J.
Additional backing vocals by: Cathamas, Vuygh, Mercur, Leon, Hraesvelg, W. Damiaen
Piano by Tobias Janssen



Technical info

Input File: Wrang - Domstad swart metael - 02 Tot dwalen verdomd.mp3
Channels : 2
Sample Rate : 44100
Precision : 16-bit
Duration : 00:06:25.28 = 16990628 samples = 28895.6 CDDA sectors
File Size : 15.5M
Bit Rate : 322k
Sample Encoding: MPEG audio (layer I, II or III)
Comments :
Title=Tot dwalen verdomd
Artist=Wrang
Album=Domstad swart metael
Tracknumber=2
Year=2019



Register


Go to the top of the page
  Insert nick Quick quote
+Quote Post
 
Start new topic
Replies (1 - 1)
post Jan 11 2019, 13:54:14
Post #2

Мегаманьяк
***********
Group: Металариец
Posts: 1,979
Releases: 0
From: Dnipro
On Forums: 10 years 6 months
Thanks: 505 time(s)
Ukraine


Не плохой альбомчик, холодный такой, колючий, с небольшим налетом сырости, не лишенный мелодики.
Go to the top of the page
  Insert nick Quick quote
+Quote Post

Reply to this topicStart new topic
2 User(s) are reading this topic (2 Guests and 0 Anonymous Users)
0 Members:

 



- Lo-Fi Version Support form
Copyrights and abuse reports form
Time is now: 19th January 2019 - 09:59:37