X   Site Message
(Message will auto close in 2 seconds)

Welcome Guest ( Log In | Register )

> Releases Upload / Добавление релизов

Добавить релиз тут / Click here to add release
Рекомендованные обменники / Recommended file shares

> Ode Insone - Relógio (2018), Melodic Doom/Death/Gothic Metal
post Feb 10 2019, 19:01:03
Post #1

Аннигилятор пивА
Group Icon
Group: V.I.P
Posts: 52,253
Releases: 16511
From: Koenigsberg - TILZIT
On Forums: 12 years 8 months
Thanks: 357695 time(s)
Russian Federation




*Artist: Ode Insone
*Album: Relógio
*Year: 2018
*Genre: Melodic Doom/Death/Gothic Metal
*Country: Brazil
*Format: mp3@CBR320kbps
*Size: 98MB

Tracklist:
01. Perfume Negro
02. Plumeria Rubra
03. Folhas de Outono
04. MГ­ngua
05. Sublime Abismo
06. RelГіgio
07. Versos de Dor
08. Ode Insone
******************************
Total playing time: 42:39



Extended info
Tiago Monteiro (Flamenhell / Aporya) - vocais
Mad Ferreira (Sea of Monsters) - guitarra
Lucas Souza (Rectus) - guitarra
Victor Laudelino (Warising / Sinal de Ataque) - baixo
George Alexandria (Vermgod) - bateria


Technical info

Input File: 5 - Sublime Abismo.mp3
Channels : 2
Sample Rate : 44100
Precision : 16-bit
Duration : 00:04:41.82 = 12428438 samples = 21136.8 CDDA sectors
File Size : 11.4M
Bit Rate : 322k
Sample Encoding: MPEG audio (layer I, II or III)
Comments :
Title=Sublime Abismo
Artist=Ode Insone
Album=Relógio
Tracknumber=5
Year=2019
Genre=Rock/Hard Rock/Metal
Discnumber=1



Register


Go to the top of the page
  Insert nick Quick quote
+Quote Post
 
Start new topic
Replies (1 - 2)
post Feb 10 2019, 20:20:07
Post #2

Аннигилятор пивА
Group Icon
Group: V.I.P
Posts: 52,253
Releases: 16511
From: Koenigsberg - TILZIT
On Forums: 12 years 8 months
Thanks: 357695 time(s)
Russian Federation


mirror
Register





Go to the top of the page
  Insert nick Quick quote
+Quote Post
post Feb 12 2019, 14:10:06
Post #3

Правь статус, ####!111
**************
Group: Металариец
Posts: 2,101
Releases: 0
From: Dnipro
On Forums: 10 years 7 months
Thanks: 535 time(s)
Ukraine


Жаль, но звучит откровенно третьесортно. 6.gif
Go to the top of the page
  Insert nick Quick quote
+Quote Post

Reply to this topicStart new topic
2 User(s) are reading this topic (2 Guests and 0 Anonymous Users)
0 Members:

 



- Lo-Fi Version Support form
Copyrights and abuse reports form
Time is now: 18th February 2019 - 10:08:13