X   Site Message
(Message will auto close in 2 seconds)

Welcome Guest ( Log In | Register )

> Releases Upload / Добавление релизов

Добавить релиз тут / Click here to add release
Рекомендованные обменники / Recommended file shares

> Jinjer - Micro [ep] (2019), Math Metal (D4)
post Jan 10 2019, 12:03:31
Post #1

Serial Uploader
Group Icon
Group: V.I.P
Posts: 33,602
Releases: 31862
From: Lithuania
On Forums: 10 years 7 months
Thanks: 363642 time(s)
Lithuania




*Artist: Jinjer
*Album: Micro [ep]
*Year: 2019
*Genre: Math Metal
*Country: Ukraine
*Format: mp3@CBR320kbps
*Size: 51MB

Tracklist:
01. Ape
02. Dreadful Moments
03. Teacher, Teacher!
04. Perennial
05. Micro
******************************
Total playing time: 20:14



Technical info

Input File: 02 Dreadful Moments.mp3
Channels : 2
Sample Rate : 44100
Precision : 16-bit
Duration : 00:04:45.09 = 12572469 samples = 21381.7 CDDA sectors
File Size : 12.3M
Bit Rate : 344k
Sample Encoding: MPEG audio (layer I, II or III)
Comments :
Title=Dreadful Moments
Artist=Jinjer
Album=Micro
Tracknumber=2/5
Year=2019
Genre=Death Metal
Discnumber=1/1



Register


Go to the top of the page
  Insert nick Quick quote
+Quote Post
 
Start new topic
Replies (1 - 9)
post Jan 10 2019, 15:49:24
Post #2

тебе 28, а ты все реверсами балуешься
***********
Group: Металариец
Posts: 1,517
Releases: 4
On Forums: 10 years 5 months
Thanks: 390 time(s)
Russian Federation


Деткор? 15.gif 15.gif
Не думаю, что Джинджер вписывается в рамки обычного деткора.
Go to the top of the page
  Insert nick Quick quote
+Quote Post
post Jan 10 2019, 17:41:45
Post #3

Правь статус, ####!111
**************
Group: Металариец
Posts: 2,775
Releases: 734
On Forums: 8 years 4 months
Thanks: 9710 time(s)
Ukraine


ЦИТАТА
*Стиль: Deathcore

facessspalm.png
Go to the top of the page
  Insert nick Quick quote
+Quote Post
post Jan 10 2019, 19:29:17
Post #4

MDM-Thrash Metal
**************
Group: Металариец
Posts: 7,420
Releases: 425
From: Одесса
On Forums: 11 years 5 months
Thanks: 14049 time(s)
Ukraine


Register


http://www.youtube.com/watch?v=FC3djB7-nc0...B7-nc0&t=52


Thanks:
(1) boby9052,
Go to the top of the page
  Insert nick Quick quote
+Quote Post
post Jan 11 2019, 08:19:44
Post #5

Правь статус, ####!111
**************
Group: Металариец
Posts: 2,775
Releases: 734
On Forums: 8 years 4 months
Thanks: 9710 time(s)
Ukraine


Хороший, мощный миник с крайне сочным звуком. Хоть какое-то разнообразие в современном метале, несмотря на обилие Мешуговщины. По-прежнему очень классный чистый вокал. Ну пользуясь случаем еще раз передаю привет каждому, кто теганул это "дедкором".


Thanks:
Go to the top of the page
  Insert nick Quick quote
+Quote Post
post Jan 11 2019, 20:13:22
Post #6

Тридцать лет на борту "Тяжёлого" крейсера
***********
Group: Металариец
Posts: 1,899
Releases: 0
From: Питер
On Forums: 11 years 7 months
Thanks: 439 time(s)
Russian Federation


Качественный релиз европейского уровня, всё тот же "Guano Apes + модернжтяжмет" стафф. На пару раз прогнать
Но делают многих именитых "рубанков". Хитовости бы побольше
Их где-то упорно сравнивали с Louna..вот от души поржал )))
Go to the top of the page
  Insert nick Quick quote
+Quote Post
post Jan 11 2019, 21:11:59
Post #7

В чистоте и единстве:мысль-слово-дело
**************
Group: Металариец
Posts: 2,313
Releases: 9
From: Киев
On Forums: 11 years 6 months
Thanks: 1287 time(s)
Ukraine


странно. но мне понравилось. деткор если и есть то как часть всего остального.
Go to the top of the page
  Insert nick Quick quote
+Quote Post
post Jan 11 2019, 22:16:12
Post #8

Правь статус, ####!111
**************
Group: Металариец
Posts: 3,096
Releases: 0
From: Одесса
On Forums: 10 years 10 months
Thanks: 1367 time(s)
Ukraine


terrible screamo vocals as usual in this syle
Go to the top of the page
  Insert nick Quick quote
+Quote Post
post Jan 14 2019, 11:39:39
Post #9

тебе 28, а ты все реверсами балуешься
***********
Group: Металариец
Posts: 1,517
Releases: 4
On Forums: 10 years 5 months
Thanks: 390 time(s)
Russian Federation


Впору бабангидовские каменты себе в подпись ставить 1488.gif
Эз южуал ин зис стайл скримо вокал бывает не так часто.
Плюс что понимать под скримо hmm.gif
Go to the top of the page
  Insert nick Quick quote
+Quote Post
post Jan 14 2019, 12:36:58
Post #10

Шесть Литров
******
Group: Металариец
Posts: 529
Releases: 8
On Forums: 7 years 5 months
Thanks: 307 time(s)
Russian Federation


Какой ещё дэткор? Реально сплошная Мешуга. И даже экстрим-вокал похоже звучит.
Go to the top of the page
  Insert nick Quick quote
+Quote Post

Reply to this topicStart new topic
2 User(s) are reading this topic (2 Guests and 0 Anonymous Users)
0 Members:

 



- Lo-Fi Version Support form
Copyrights and abuse reports form
Time is now: 23rd January 2019 - 02:45:26