X   Site Message
(Message will auto close in 2 seconds)

Welcome Guest ( Log In | Register )

> Releases Upload / Добавление релизов

Добавить релиз тут / Click here to add release
Рекомендованные обменники / Recommended file shares

 
Reply to this topicStart new topic
> Negative Slug - Knee Deep In Raw Sewage [ep] (2019), Sludge/Doom Metal
post Feb 12 2019, 08:30:56
Post #1

Аннигилятор пивА
Group Icon
Group: V.I.P
Posts: 52,253
Releases: 16511
From: Koenigsberg - TILZIT
On Forums: 12 years 8 months
Thanks: 357695 time(s)
Russian Federation




*Artist: Negative Slug
*Album: Knee Deep In Raw Sewage [ep]
*Year: 2019
*Genre: Sludge/Doom Metal
*Country: Croatia
*Format: mp3@CBR320kbps
*Size: 50MB

Tracklist:
01. Spewing Spasm Mental Orgy 01:42
02. Inbreed Retard (Self Humiliation) 01:26
03. WARPEDSPEEDCock´nOUT!!!!!! 02:18
04. Death Erection 00:48
05. Knee Deep In Raw Sewage 03:45
06. Cold Lunch 01:40
07. YUCK!!! 00:57
08. Nun's Piss 02:23
09. Spastic Eagle Rusty Trombone 01:16
10. Heaven´s Scent 04:58
******************************
Total playing time: 21:13




Extended info
Neven Polsak - Guitar
Marijan Skrinjar - Bass
Marko Balenovic - Drums
Sven Polsak - Vocals



Technical info

Input File: Negative Slug - Knee Deep in Raw Sewage - 04 Death Erection.mp3
Channels : 2
Sample Rate : 44100
Precision : 16-bit
Duration : 00:00:48.20 = 2125532 samples = 3614.85 CDDA sectors
File Size : 2.01M
Bit Rate : 334k
Sample Encoding: MPEG audio (layer I, II or III)
Comments :
Title=Death Erection
Artist=Negative Slug
Album=Knee Deep in Raw Sewage
Tracknumber=4
Year=2019



Register


Go to the top of the page
  Insert nick Quick quote
+Quote Post

Reply to this topicStart new topic
2 User(s) are reading this topic (2 Guests and 0 Anonymous Users)
0 Members:

 



- Lo-Fi Version Support form
Copyrights and abuse reports form
Time is now: 18th February 2019 - 10:07:44