X   Site Message
(Message will auto close in 2 seconds)

Welcome Guest ( Log In | Register )

> Releases Upload / Добавление релизов

Добавить релиз тут / Click here to add release
Рекомендованные обменники / Recommended file shares

> Horizon Ignited - After The Storm (2019), Melodic Death Metal
post Jan 30 2019, 11:59:38
Post #1

Аннигилятор пивА
Group Icon
Group: V.I.P
Posts: 52,190
Releases: 16479
From: Koenigsberg - TILZIT
On Forums: 12 years 8 months
Thanks: 357016 time(s)
Russian Federation




*Artist: Horizon Ignited
*Album: After The Storm
*Year: 2019
*Genre: Melodic Death Metal
*Country: Finland
*Format: mp3@CBR320kbps
*Size: 105MB

Tracklist:
01. Home
02. Equal in Death
03. Plague of Dreams
04. Burning Man
05. Under the Bloodmoon
06. Blame My Name
07. Fire & Glow
08. Flesh
09. Through the Dark
10. Fall With Me
11. Leviathan
******************************
Total playing time: 45:15



Extended info
Okko Solanterä (Vocals)
Johannes Mäkinen (Guitar)
Vili Vottonen (Guitar)
Miska Ek (Keyboards)
Ville Nikander (Bass)
Jiri Vanhatalo (Drums)


Technical info

Input File: 2 - Equal in Death.mp3
Channels : 2
Sample Rate : 44100
Precision : 16-bit
Duration : 00:03:22.07 = 8911199 samples = 15155.1 CDDA sectors
File Size : 8.17M
Bit Rate : 323k
Sample Encoding: MPEG audio (layer I, II or III)
Comments :
Title=Equal in Death
Artist=Horizon Ignited
Album=After the Storm
Tracknumber=2
Year=2019
Genre=MDM
Discnumber=1



Register


Go to the top of the page
  Insert nick Quick quote
+Quote Post
 
Start new topic
Replies (1 - 7)
post Jan 30 2019, 16:35:39
Post #2

Аннигилятор пивА
Group Icon
Group: V.I.P
Posts: 52,190
Releases: 16479
From: Koenigsberg - TILZIT
On Forums: 12 years 8 months
Thanks: 357016 time(s)
Russian Federation


MIRROR
Register



Thanks:
Go to the top of the page
  Insert nick Quick quote
+Quote Post
post Jan 30 2019, 18:30:11
Post #3

Тридцать лет на борту "Тяжёлого" крейсера
***********
Group: Металариец
Posts: 1,926
Releases: 0
From: Питер
On Forums: 11 years 8 months
Thanks: 457 time(s)
Russian Federation


Свано, походу, где-то рядом сидел, или в студии, или за дверью
Неплохой релиз, хотя и сыроват, ну, и чистый войс, как обычно, хочется вырезать из микса


Thanks:
(1) AHBAnep,
Go to the top of the page
  Insert nick Quick quote
+Quote Post
post Jan 30 2019, 18:45:44
Post #4

тебе 28, а ты все реверсами балуешься
***********
Group: Металариец
Posts: 1,556
Releases: 4
On Forums: 10 years 6 months
Thanks: 404 time(s)
Russian Federation


ЦИТАТА(sadmannn @ Jan 30 2019, 20:30:11) *
Свано, походу, где-то рядом сидел, или в студии, или за дверью
Неплохой релиз, хотя и сыроват, ну, и чистый войс, как обычно, хочется вырезать из микса


А мне наоборот очень зашёл чистый - не пацанский, хорошо сидит в пачке. Электронные вставочки тоже найс.
Go to the top of the page
  Insert nick Quick quote
+Quote Post
post Jan 31 2019, 17:36:48
Post #5

Правь статус, ####!111
**************
Group: Металариец
Posts: 2,101
Releases: 0
From: Dnipro
On Forums: 10 years 7 months
Thanks: 535 time(s)
Ukraine


По моему дерьмище первосортное 12.gif Еще с утра лося скачал, удалил после трех песен.
Go to the top of the page
  Insert nick Quick quote
+Quote Post
post Feb 11 2019, 09:38:08
Post #6

Ъ
**************
Group: Металариец
Posts: 9,378
Releases: 9
On Forums: 10 years 1 month
Thanks: 1802 time(s)
Sweden


Третьесорт.
Go to the top of the page
  Insert nick Quick quote
+Quote Post
post Feb 11 2019, 10:24:59
Post #7

И Ван Дамм По Делам Вашим!
**************
Group: Металариец
Posts: 16,556
Releases: 26
On Forums: 10 years 7 months
Thanks: 8793 time(s)
Honduras


ЦИТАТА(isvili @ Jan 31 2019, 18:36:48) *
По моему дерьмище первосортное



ЦИТАТА(DenisKov @ Feb 11 2019, 10:38:08) *
Третьесорт.

ну и кому верить?В сортности пересорт вышел. 1488.gif
Go to the top of the page
  Insert nick Quick quote
+Quote Post
post Feb 11 2019, 10:30:32
Post #8

Join my religion, or die
**************
Group: Металариец
Posts: 9,887
Releases: 1220
From: Питера
On Forums: 9 years 4 months
Thanks: 16467 time(s)
Russian Federation


Если послушать обложку - то это модерн 15.gif
А какого сорта уже не важно...
Go to the top of the page
  Insert nick Quick quote
+Quote Post

Reply to this topicStart new topic
2 User(s) are reading this topic (2 Guests and 0 Anonymous Users)
0 Members:

 



- Lo-Fi Version Support form
Copyrights and abuse reports form
Time is now: 16th February 2019 - 01:05:44