X   Site Message
(Message will auto close in 2 seconds)

Welcome Guest ( Log In | Register )

> Releases Upload / Добавление релизов

Добавить релиз тут / Click here to add release
Рекомендованные обменники / Recommended file shares

> The Walrus Resists - Sons Of Gehenna [ep] (2019), Death Metal
post Jan 11 2019, 16:58:49
Post #1

Мегаманьяк
***********
Group: Металариец
Posts: 1,527
Releases: 1309
From: Одесса
On Forums: 10 years 7 months
Thanks: 10336 time(s)
Ukraine




*Artist: The Walrus Resists
*Album: Sons Of Gehenna [ep]
*Year: 2019
*Genre: Death Metal
*Country: France
*Format: mp3@CBR320kbps
*Size: 54MB

Tracklist:
1. Ignorantia
2. Credentia
3. Avaritia
4. Dominatio
******************************
Total playing time: 24:30



Extended info
Line - up:

Den - Bass
Richy - Drums
Clement - Guitars
Kam - Guitars
Tobby - Vocals



Technical info

Input File: 03-the_walrus_resists-avaritia-8839855b.mp3
Channels : 2
Sample Rate : 44100
Precision : 16-bit
Duration : 00:07:53.76 = 20892816 samples = 35532 CDDA sectors
File Size : 19.0M
Bit Rate : 320k
Sample Encoding: MPEG audio (layer I, II or III)
Comments :
Title=Avaritia
Artist=The Walrus Resists
Album=Sons of Gehenna (EP)
Tracknumber=3
Year=2019
Genre=22



Register


Go to the top of the page
  Insert nick Quick quote
+Quote Post
 
Start new topic
Replies (1 - 1)
post Jan 11 2019, 22:01:32
Post #2

Социопат.Маргинал. Мизантроп.Нигилист. Перверзный нарциссист.
**************
Group: Металариец
Posts: 5,370
Releases: 667
From: Город-герой Ленинград
On Forums: 7 years 11 months
Thanks: 6026 time(s)
Russian Federation


ЦИТАТА(Necrokilldozer @ 11th January 2019 - 16:58:49) *
Death Metal
ты сам-то слушал этот "дет" метал?
Go to the top of the page
  Insert nick Quick quote
+Quote Post

Reply to this topicStart new topic
2 User(s) are reading this topic (2 Guests and 0 Anonymous Users)
0 Members:

 



- Lo-Fi Version Support form
Copyrights and abuse reports form
Time is now: 19th January 2019 - 12:04:07