X   Site Message
(Message will auto close in 2 seconds)

Welcome Guest ( Log In | Register )

> Releases Upload / Добавление релизов

Добавить релиз тут / Click here to add release
Рекомендованные обменники / Recommended file shares

 
Reply to this topicStart new topic
> Kriegsschwein - Nacht Der Luziferischen Kriegsspiele [ep] (2019), Raw Black Metal
post Feb 12 2019, 14:34:38
Post #1

Serial Uploader
Group Icon
Group: V.I.P
Posts: 33,894
Releases: 32134
From: Lithuania
On Forums: 10 years 8 months
Thanks: 366582 time(s)
Lithuania




*Artist: Kriegsschwein
*Album: Nacht Der Luziferischen Kriegsspiele [ep]
*Year: 2019
*Genre: Raw Black Metal
*Country: United Kingdom
*Format: mp3@CBR320kbps
*Size: 31MB

Tracklist:
01. Blackened War of Two Evils (Instrumental) 05:12
02. MCCCXLVIII 04:01
03. The Hate of the Crucified Lucifer 03:59
******************************
Total playing time: 13:12



Technical info

Input File: 01. Blackened War of Two Evils (Instrumental).mp3
Channels : 2
Sample Rate : 44100
Precision : 16-bit
Duration : 00:05:12.70 = 13790202 samples = 23452.7 CDDA sectors
File Size : 12.6M
Bit Rate : 323k
Sample Encoding: MPEG audio (layer I, II or III)
Comments :
Title=Blackened War of Two Evils (Instrumental)
Artist=Kriegsschwein
Album=Nacht der Luziferischen Kriegsspiele
Tracknumber=1
Year=2019



Register


Go to the top of the page
  Insert nick Quick quote
+Quote Post

Reply to this topicStart new topic
2 User(s) are reading this topic (2 Guests and 0 Anonymous Users)
0 Members:

 



- Lo-Fi Version Support form
Copyrights and abuse reports form
Time is now: 18th February 2019 - 10:03:55