X   Site Message
(Message will auto close in 2 seconds)

Welcome Guest ( Log In | Register )

> Releases Upload / Добавление релизов

Добавить релиз тут / Click here to add release
Рекомендованные обменники / Recommended file shares

 
Reply to this topicStart new topic
> Wombs Of Agony - Echoes Of Time [ep] (2019), Depressive Black Metal
post Feb 12 2019, 15:29:58
Post #1

Serial Uploader
Group Icon
Group: V.I.P
Posts: 33,894
Releases: 32134
From: Lithuania
On Forums: 10 years 8 months
Thanks: 366582 time(s)
Lithuania




*Artist: Wombs Of Agony
*Album: Echoes Of Time [ep]
*Year: 2019
*Genre: Depressive Black Metal
*Country: France
*Format: mp3@CBR320kbps
*Size: 40MB

Tracklist:
01. Deceit 05:27
02. Echoes of Time 04:19
03. From the Abyss 03:42
04. Do You Remember? 04:00
******************************
Total playing time: 17:28



Technical info

Input File: 03. From the abyss.mp3
Channels : 2
Sample Rate : 44100
Precision : 16-bit
Duration : 00:03:42.94 = 9831698 samples = 16720.6 CDDA sectors
File Size : 9.06M
Bit Rate : 325k
Sample Encoding: MPEG audio (layer I, II or III)
Comments :
Title=From the abyss
Artist=Wombs of Agony
Album=Echoes Of Time (EP)
Tracknumber=3
Year=2019



Register


Go to the top of the page
  Insert nick Quick quote
+Quote Post

Reply to this topicStart new topic
1 User(s) are reading this topic (1 Guests and 0 Anonymous Users)
0 Members:

 



- Lo-Fi Version Support form
Copyrights and abuse reports form
Time is now: 18th February 2019 - 10:02:55